<?xml version="1.0" standalone="no"?> 
<!DOCTYPE svg PUBLIC "-//W3C//DTD SVG 1.1//EN" "http://www.w3.org/Graphics/SVG/1.1/DTD/svg11.dtd" >
<svg xmlns="http://www.w3.org/2000/svg">
<defs>
  <font id="tumblr-icons" horiz-adv-x="1000">
    <font-face font-family="tumblr-icons"
      units-per-em="1000" ascent="835"
      descent="165" />
    <missing-glyph horiz-adv-x="0" />
    <glyph glyph-name="activity"
      unicode="&#xEA01;"
      horiz-adv-x="595.8333333333334" d=" M166.6666666666667 -52.5000000000005C162.499999999999 -52.5000000000005 158.3333333333338 -48.3333333333328 158.3333333333338 -48.3333333333328C133.3333333333329 -35.8333333333323 120.8333333333348 -10.8333333333337 129.1666666666676 14.1666666666672L220.8333333333338 255.8333333333343H75.0000000000005C70.8333333333329 255.8333333333343 62.5 255.8333333333343 58.3333333333348 260.000000000002C41.666666666669 264.1666666666696 33.3333333333338 272.5000000000024 25.0000000000009 285.0000000000029C16.6666666666681 301.6666666666686 16.6666666666681 326.6666666666696 33.3333333333338 343.3333333333353L391.6666666666681 739.1666666666686C404.1666666666686 755.8333333333343 429.1666666666672 764.1666666666695 450.0000000000005 755.8333333333343C454.166666666668 755.8333333333343 458.3333333333333 751.6666666666666 458.3333333333333 751.6666666666666C483.3333333333343 739.1666666666662 495.8333333333323 714.1666666666677 487.4999999999995 689.1666666666667L395.8333333333333 468.3333333333329H541.6666666666666C545.8333333333343 468.3333333333329 554.1666666666671 468.3333333333329 558.3333333333323 464.1666666666653C574.9999999999981 459.9999999999977 583.3333333333333 443.333333333332 587.4999999999985 430.8333333333315C595.8333333333314 414.1666666666657 595.8333333333314 389.1666666666648 579.1666666666657 372.4999999999991L220.8333333333315 -31.6666666666671C212.4999999999986 -44.1666666666675 195.8333333333305 -52.5000000000005 179.1666666666648 -52.5000000000005C179.1666666666648 -56.6666666666657 170.8333333333319 -56.6666666666657 166.6666666666667 -52.5000000000005z" />
    <glyph glyph-name="airplane"
      unicode="&#xEA02;"
      horiz-adv-x="1000" d=" M250.0099395833333 43.3432750000001L382.0911725 254.3815833333334L553.9217749999999 294.2142833333334C573.713125 300.1308541666667 573.713125 328.172075 553.9217749999999 334.1303166666667L382.0911725 373.9630166666667L250.0099395833333 585.0013254166668L791.6679916666666 314.1723000000001L250.0099395833333 43.3432750000001L250.0099395833333 43.3432750000001zM828.9174 388.7127791666667L287.2593475 659.5418066666666C275.4262020833334 665.4583791666666 262.63473875 668.3333333333334 250.0099395833333 668.3333333333334C227.0936375 668.3333333333334 204.5106633333333 658.8751504166667 188.34425375 641.0421008333334C163.2196533333333 613.3758741666667 159.553045 572.4181920833333 179.3443970833334 540.7936950000001L321.2171404166667 314.1723000000001L179.3443970833334 87.5509041666668C159.553045 55.8847416666666 163.2196533333333 14.9270583333333 188.34425375 -12.7391666666666C204.5106633333333 -30.5305499999999 227.0936375 -39.9887333333332 250.0099395833333 -39.9887333333332C262.63473875 -39.9887333333332 275.4262020833334 -37.1554458333333 287.2593475 -31.1972083333333L828.9174 239.6318166666668C857.1669499999999 253.7149291666667 875 282.5894666666667 875 314.1723000000001C875 345.7134625 857.1669499999999 374.5880041666667 828.9174 388.7127791666667L828.9174 388.7127791666667z" />
    <glyph glyph-name="airplane_legacy"
      unicode="&#xEA03;"
      horiz-adv-x="1000" d=" M190.411855 746.4471670833333C157.0960725 763.98130625 118.5388470833333 734.7274570833333 125.9173591666667 697.546905L182.0660379166667 414.7748375000001C187.1275170833334 389.3594208333334 230.3158454166667 377.0264666666667 256.0056654166667 377.0264666666667L493.1333166666666 377.0264666666667C511.7595625 377.0264666666667 531.011275 349.2468458333334 531.011275 330.4408C531.011275 311.6347541666667 511.759575 296.9418041666667 493.1333291666666 296.9418041666667L234.9303791666667 296.9418041666667C209.2405591666667 296.9418041666667 187.1275170833334 284.6315458333334 182.0660379166667 259.1934166666668L125.9173591666667 -23.5786499999999C118.5388470833333 -60.7592041666666 157.0960725 -90.0130541666666 190.411855 -72.4789124999999L892.6077666666666 296.9417833333333C924.6863 313.8172583333334 924.6863 360.1509958333334 892.6077666666666 377.0264708333334L190.411855 746.4471670833333z" />
    <glyph glyph-name="analytics"
      unicode="&#xEA04;"
      horiz-adv-x="1000" d=" M875.125 535.2083333333333C855.1249999999999 511.9166666666667 824.8333333333333 501.6666666666667 791.7083333333334 501.6666666666667C795.5416666666666 501.6666666666667 773.7083333333333 500.7083333333334 759.5833333333333 505.1666666666667C746.125 509.5833333333334 733.7916666666666 513.7083333333333 723.0833333333333 522.6666666666667C699.625 542.2916666666667 684.125 571.3333333333333 683.625 604.2083333333334C683.625 604.9583333333334 683.3333333333333 605.5833333333334 683.3333333333333 606.3333333333333C683.3333333333333 638.7083333333334 697.8333333333334 667.5 720.0833333333333 687.5416666666666C739.4166666666665 704.875 763.7499999999999 710 791.7499999999999 710C852.2083333333333 710 902.0833333333331 666.7916666666667 902.0833333333331 606.3333333333333C902.1249999999998 578.9583333333334 891.7083333333333 554.3333333333334 875.125 535.2083333333333L875.125 535.2083333333333zM669.375 360.2916666666667C664.1666666666666 351.1250000000001 652.875 347.2916666666667 643.3333333333333 351.3750000000001L534.9583333333334 395.8750000000001L485.0833333333333 177.2083333333334C483.5833333333333 170.7083333333334 478.9583333333333 165.0000000000001 472.5416666666666 162.375C466.2499999999999 159.8750000000001 459.125 160.4583333333334 453.25 164.2500000000001L334.0416666666667 230.2500000000001L229.6666666666667 51.5416666666666L225.375 43.3333333333334L708.5 43.3333333333334C731.5416666666665 43.3333333333334 750.1666666666666 63.8333333333334 750.1666666666666 86.7916666666666L750 418.3333333333334L833.3333333333333 418.3333333333334L833.3333333333333 63.5833333333334C833.3333333333333 -5.3333333333333 779.2083333333333 -40 710.2916666666666 -40L165.375 -40C142.3333333333333 -40 125 -21.375 125 1.75L125 547.9583333333333C125 616.8333333333334 179.75 668.3333333333334 248.7083333333334 668.3333333333334L583.3333333333333 668.3333333333334L583.3333333333333 587.0416666666667L252.2083333333333 587.0416666666667C229.2083333333334 587.0416666666667 208.3333333333333 570.9166666666667 208.3333333333333 547.9583333333333L208.3333333333333 96.7083333333334L228.3333333333334 126.9166666666668L308.6666666666667 270.125C311.4583333333333 275.1666666666668 316.25 278.75 321.8333333333333 280.1666666666667C327.3333333333333 281.5416666666668 333.3333333333333 280.5416666666667 338.1666666666667 277.5416666666668L450.7499999999999 206.8333333333334L499.6666666666667 429.5000000000001C500.9583333333333 435.5000000000001 504.875 440.625 510.3333333333333 443.5C515.875 446.25 522.2083333333333 446.5000000000001 527.9166666666666 444.375L642.1666666666666 397.25L666.6666666666666 460.0833333333334L708.3333333333333 460.0833333333334L669.375 360.2916666666667L669.375 360.2916666666667zM188.3333333333333 -14.9999999999999L185.4166666666667 -19.2499999999999C185.9166666666667 -18.5 186.75 -18.2083333333333 187.1666666666667 -17.4583333333333L188.3333333333333 -14.9999999999999L188.3333333333333 -14.9999999999999z" />
    <glyph glyph-name="android"
      unicode="&#xEA05;"
      horiz-adv-x="1000" d=" M248.7083333333334 460.0260216666667C223.9583333333333 460.0260216666667 208.3333333333333 445.8301895833333 208.3333333333333 423.0618054166667L208.375 250.2737541666667C208.375 227.4267250000001 224 208.9839416666668 248.75 208.9839416666668C273.4583333333333 208.9839416666668 291.9166666666667 227.4267250000001 291.875 250.2737541666667L291.875 423.1011291666667C291.875 445.8695133333334 277.8333333333333 460.0260216666667 253.125 460.0260216666667L248.7083333333334 460.0260216666667zM656.5416666666666 693.8172733333333C658.2083333333334 696.73394 651.2083333333333 706.3172733333333 648.1666666666666 707.98394C645.0833333333333 709.5672733333333 631 708.5256066666667 629.375 705.6089400000001L597.875 649.2339400000001C571.2916666666666 660.8172733333333 551.9166666666666 667.2756066666667 520.4583333333333 667.2756066666667C489.0833333333333 667.2756066666667 466.75 663.7756066666667 440.2916666666667 652.2756066666667L408.75 708.4422733333333C407.0833333333333 711.4006066666667 395.9166666666667 709.5256066666667 392.9583333333333 707.9006066666667C389.875 706.3172733333333 381.375 696.73394 383.0416666666667 693.8172733333333L414.3333333333334 638.1506066666667C352.9166666666667 607.1506066666667 334.1817629166667 571.6110025 334.2234295833333 503.9860025L708.5723999999999 503.9860025C708.5723999999999 571.6110025 686.6249999999999 607.1089400000001 625.2916666666666 638.1089400000001L656.5416666666666 693.8172733333333zM430.3563458333333 543.7860108333334C421.9396791666666 552.0360116666667 417.0455916666666 552.1558066666666 417.0455916666666 561.2808066666666C417.0455916666666 570.3224733333334 428.1005458333334 583.591105 437.4338791666667 583.591105C446.7672125000001 583.591105 457.7804958333333 575.6497395833333 457.8221625 566.6080729166667C457.8221625 557.4830729166667 457.4315374999999 543.7860108333334 448.0565375 543.7860108333334C448.0565375 543.7860108333334 438.7730125 535.5360108333333 430.3563458333333 543.7860108333334zM583.724975 562.7555595833334C583.724975 571.8388929166667 594.9258625 584.735515 604.2175291666666 584.735515C613.5508625 584.735515 625.5035416666667 571.8388904166667 625.5035416666667 562.7555570833333C625.5452083333333 553.6305570833333 613.5508625 543.5622158333333 604.2175291666666 543.5622158333333C594.9258625 543.5205491666667 583.724975 553.6305595833334 583.724975 562.7555595833334zM332.6666666666667 184.2549666666668C332.6666666666667 158.9193291666668 350.0914116666667 125.6163541666667 376.5080783333334 125.6163541666667L418.1874625 125.6163541666667L418.1874625 43.2922458333335C418.1874625 19.5938083333334 433.0416666666667 0.2339416666666 457.6666666666666 0.2339416666666C482.4166666666666 0.2339416666666 502.5 19.5528750000001 502.5 43.2103833333333L502.5000083333333 125.6163541666667L541.5979916666666 125.6163541666667L541.5979916666666 43.2922458333335C541.5979916666666 19.6347375 557.5833333333333 0.2748708333334 582.25 0.3158C606.9583333333333 0.2748708333334 623.8148916666667 19.5528791666667 623.8148916666667 43.2922458333335L623.8148916666667 125.6163541666667L666.6463125 125.6163541666667C692.9796458333333 125.575425 708.5833333333333 158.9193333333334 708.5833333333333 184.2549666666668L708.5416666666666 460L332.6666666666667 459.91814L332.6666666666667 184.2549666666668zM793.2942708333333 460.109355C793.2942708333333 460.109355 750.4425041666666 460.0256070833333 750.4425041666666 435.9006070833334L750.4425041666666 252.8172708333334C750.4425041666666 228.6089375 765.0833333333333 209.0672750000001 789.875 209.0672750000001C814.5833333333334 209.0672750000001 833.6705916666666 228.5672750000001 833.7122583333332 252.817275L833.7122583333332 435.9006058333334C833.7122583333332 460.0672725000001 793.2942708333333 460.109355 793.2942708333333 460.109355z" />
    <glyph glyph-name="apple"
      unicode="&#xEA06;"
      horiz-adv-x="1000" d=" M699.9929249999999 357.3750000000001C695.6179249999999 330.125 699.3262583333333 301.6666666666667 710.4095916666665 276.2916666666667C724.5345916666666 243.9166666666668 750.7012583333334 216.4166666666668 787.492925 202.2916666666666C786.4095916666666 199.875 785.3679249999999 197.4583333333334 784.3262583333333 195.2083333333334C771.7012583333333 166.9583333333334 764.367925 152.2916666666666 746.8679249999999 125.2916666666666C744.5345916666666 121.6250000000001 742.0762583333333 117.9583333333334 739.5762583333334 114.1666666666666C713.7845916666665 75.7916666666667 679.1595916666665 33.625 637.242925 33.25C596.242925 32.8333333333334 585.7012583333333 60.2916666666667 530.117925 59.9583333333334C474.5345916666666 59.7083333333334 462.9512583333333 32.75 421.9512583333334 33.1666666666667C378.2012575 33.5416666666667 344.1595908333333 75.0000000000001 318.2429241666667 114.1250000000001L314.2429241666667 120.25C298.4929241666667 144.6250000000001 285.7429241666667 169.8750000000001 275.9095908333333 195.2500000000001C265.3262575 222.5000000000001 258.0345908333333 249.8333333333334 253.9512575 276.3333333333334C249.5762575 304.75 248.8679241666667 332.2083333333334 251.6595908333333 357.3750000000001C255.0762575 388.6666666666667 263.9095908333333 416.5 277.7012575 438.4166666666667C277.8262575 438.7500000000001 278.0345908333333 439.0833333333333 278.2429241666667 439.4166666666667C310.6179241666667 489.9583333333333 361.6179241666667 519.5833333333333 409.6179241666667 519.5833333333333C458.4512583333333 519.5833333333333 489.2012583333333 492.375 529.5762583333334 492.375C568.742925 492.375 592.617925 519.625 649.117925 519.625C691.7845916666666 519.625 737.0345916666666 496.0000000000001 769.242925 455.2083333333334C760.367925 450.25 752.2845916666666 444.6250000000001 745.117925 438.4166666666667C719.6179249999999 416.4583333333334 704.9095916666666 387.625 699.9929249999999 357.3750000000001L699.9929249999999 357.3750000000001zM509.8262583333333 515.5C503.1595916666666 552.4583333333334 520.2845916666666 590.4583333333334 541.0762583333333 616.0833333333334C563.9929249999999 644.3333333333334 603.1595916666666 665.9583333333333 636.7012583333333 668.3333333333334C642.3679249999999 629.7083333333334 626.7845916666666 591.9583333333334 606.242925 565.1666666666667C584.2845916666666 536.5416666666667 546.4095916666666 514.375 509.8262583333333 515.5L509.8262583333333 515.5z" />
    <glyph glyph-name="arrow_carrot_down"
      unicode="&#xEA07;"
      horiz-adv-x="1000" d=" M797.8333333333333 585L499.0833333333333 286.3333333333334L202.1666666666667 583.375L83.3333333333333 464.5416666666667L380.2916666666667 167.5L378.7083333333333 165.875L497.5416666666667 47.0833333333334L916.6666666666666 466.1666666666667L797.8333333333333 585" />
    <glyph glyph-name="arrow_carrot_left"
      unicode="&#xEA08;"
      horiz-adv-x="1000" d=" M746.25 37.1666666666667L447.5833333333334 335.8750000000001L744.6249999999999 632.8333333333334L625.7916666666666 751.6666666666666L328.75 454.7083333333333L327.125 456.2916666666667L208.3333333333333 337.4583333333333L627.4166666666666 -81.6666666666666L746.25 37.1666666666667" />
    <glyph glyph-name="arrow_carrot_right"
      unicode="&#xEA09;"
      horiz-adv-x="1000" d=" M254.1666666666676 630.8333333333343L554.1666666666671 330.8333333333348L258.3333333333329 35.0000000000006L379.1666666666652 -85.8333333333319L674.9999999999994 210.0000000000024L674.9999999999994 210.0000000000024L795.8333333333319 330.8333333333348L374.9999999999976 751.666666666669L254.1666666666676 630.8333333333343" />
    <glyph glyph-name="arrow_carrot_thin_left"
      unicode="&#xEA0A;"
      horiz-adv-x="1000" d=" M737.4999999999994 701.6666666666672C750 714.1666666666677 750 730.8333333333334 737.4999999999994 743.3333333333338C724.999999999999 755.8333333333343 704.1666666666657 768.3333333333347 691.6666666666652 780.8333333333328C683.3333333333323 789.1666666666657 666.6666666666642 797.4999999999986 654.1666666666662 780.8333333333328C575.0000000000005 701.6666666666672 312.5 430.8333333333339 237.4999999999995 355.8333333333334C220.8333333333338 339.1666666666677 220.8333333333338 326.6666666666672 237.4999999999995 309.9999999999991C316.6666666666652 230.8333333333334 583.3333333333333 -44.1666666666675 654.1666666666662 -115.0000000000004C662.499999999999 -123.3333333333332 683.3333333333323 -127.5000000000009 691.6666666666652 -115.0000000000004C704.1666666666657 -102.5 724.999999999999 -85.8333333333343 737.4999999999994 -73.3333333333337C750 -60.8333333333333 750 -48.3333333333328 737.4999999999994 -35.8333333333347C666.6666666666666 34.9999999999982 445.8333333333329 259.9999999999996 387.5000000000005 318.3333333333319C379.1666666666676 326.6666666666648 383.3333333333329 339.1666666666653 387.5000000000005 347.4999999999981C450.0000000000005 405.8333333333329 666.6666666666666 630.8333333333343 737.4999999999994 701.6666666666672z" />
    <glyph glyph-name="arrow_carrot_thin_right"
      unicode="&#xEA0B;"
      horiz-adv-x="1000" d=" M240.0287058333333 -32.4331083333334C226.7191820833333 -45.7426291666666 229.4662058333333 -63.5402499999999 240.37692 -74.4509624999999C252.56442 -86.6771541666667 272.0257295833333 -100.8917541666666 284.4066816666667 -113.2727041666666C294.7370391666667 -123.6030624999998 308.82037 -128.12985 323.7162033333333 -113.2727041666666C402.0644175 -34.9244916666665 664.2697791666666 235.6145125000001 742.076325 313.45975C758.4810875 329.8258208333334 758.9066833333334 340.8913 740.7221583333333 359.0758208333334C659.9364458333333 439.8615362500001 396.6090604166667 712.5520125 323.7162033333333 785.4448695833333C315.1656083333333 793.9954649166667 296.2459675 797.245465 284.4066820833334 785.4448695833333C270.94239625 771.94189375 251.0941820833333 756.5817745833333 237.93942 743.3883220833334C225.1715629166667 730.6591554166666 226.8352533333333 716.7692745833333 239.7191820833333 703.92403625C310.2132295833333 633.3912983333333 530.013825 408.1740375 588.3590624999999 349.8288000000001C598.1477541666666 340.0401083333334 594.1626333333334 327.1174875000001 588.01085 320.9657041666667C529.2400166666666 262.1561791666667 310.7935866666667 38.2930833333334 240.0287058333333 -32.4331083333334z" />
    <glyph glyph-name="arrow_carrot_up"
      unicode="&#xEA0C;"
      horiz-adv-x="1000" d=" M204.1666666666657 43.3333333333334L504.1666666666652 343.3333333333329L799.9999999999994 47.4999999999986L920.8333333333318 168.333333333331L624.9999999999976 464.1666666666653L624.9999999999976 464.1666666666653L504.1666666666652 584.9999999999976L83.333333333331 164.1666666666635L204.1666666666657 43.3333333333334" />
    <glyph glyph-name="arrow_filled_down"
      unicode="&#xEA0D;"
      horiz-adv-x="1000" d=" M833.3333333333333 585H166.6666666666667L500 85L833.3333333333333 585" />
    <glyph glyph-name="arrow_filled_left"
      unicode="&#xEA0E;"
      horiz-adv-x="1000" d=" M750 1.6666666666667V668.3333333333334L250 335L750 1.6666666666667" />
    <glyph glyph-name="arrow_filled_right"
      unicode="&#xEA0F;"
      horiz-adv-x="1000" d=" M250 668.3333333333334V1.6666666666667L750 335L250 668.3333333333334" />
    <glyph glyph-name="arrow_filled_up"
      unicode="&#xEA10;"
      horiz-adv-x="1000" d=" M166.6666666666667 85H833.3333333333333L500 585L166.6666666666667 85" />
    <glyph glyph-name="arrow_small_right"
      unicode="&#xEA11;"
      horiz-adv-x="1444.4444444444446" d=" M0 168.3333333333333H777.7777777777778V-165L1444.4444444444446 335L777.7777777777778 835L777.7777777777778 501.6666666666666H0V168.3333333333333" />
    <glyph glyph-name="arrow_thin_down"
      unicode="&#xEA12;"
      horiz-adv-x="1000" d=" M458.3333333333333 626.6666666666667L458.3333333333333 169.25L281.2083333333333 346.375C274.6666666666667 352.9166666666667 264.0833333333333 352.9166666666667 257.5416666666667 346.375L213.2083333333333 302.0833333333334C206.7083333333334 295.5416666666668 206.7083333333334 284.9583333333334 213.2083333333333 278.4166666666667L453.7083333333333 39.7916666666666C454.8749999999999 38.6666666666667 454.3333333333333 37.9583333333334 455.7083333333333 37.2083333333335L490.7083333333333 2.0833333333335C491.6249999999999 1.2083333333334 514.4166666666666 2 514.5 2.0833333333335L790.7916666666666 278.375C797.2916666666667 284.9166666666668 797.2916666666667 295.5 790.7916666666666 302.0416666666667L746.5 346.3333333333334C740 352.8333333333334 729.3333333333334 352.8333333333334 722.8333333333333 346.3333333333334L541.5833333333333 165.125L541.5833333333333 626.6666666666667L458.3333333333333 626.6666666666667L458.3333333333333 626.6666666666667zM502.0416666666666 125.5416666666666L500.9583333333333 126.6666666666668L503.1666666666667 126.6666666666668L502.0416666666666 125.5416666666666L502.0416666666666 125.5416666666666z" />
    <glyph glyph-name="arrow_thin_left"
      unicode="&#xEA13;"
      horiz-adv-x="1000" d=" M320.8333333333329 293.3333333333334L520.8333333333333 105.8333333333334C529.1666666666662 97.5000000000006 529.1666666666662 80.8333333333325 520.8333333333333 72.4999999999996L458.3333333333333 9.9999999999995C450.0000000000005 1.6666666666667 433.3333333333324 1.6666666666667 424.9999999999995 9.9999999999995L83.3333333333333 339.1666666666653C83.3333333333333 339.1666666666653 83.3333333333333 372.4999999999991 83.3333333333333 372.4999999999991L424.9999999999995 701.6666666666648C433.3333333333324 709.9999999999976 450.0000000000005 709.9999999999976 458.3333333333333 701.6666666666648L520.8333333333333 639.1666666666648C529.1666666666662 630.8333333333319 529.1666666666662 614.1666666666638 520.8333333333333 605.833333333331L320.8333333333329 418.333333333331H879.1666666666652C879.1666666666652 418.333333333331 916.6666666666642 380.833333333332 916.6666666666642 376.6666666666643V339.1666666666653C916.6666666666642 339.1666666666653 874.9999999999976 293.333333333331 874.9999999999976 293.333333333331H320.8333333333329z" />
    <glyph glyph-name="arrow_thin_right"
      unicode="&#xEA14;"
      horiz-adv-x="1000" d=" M208.3333333333333 293.3333333333334H666.6666666666666L491.6666666666671 114.1666666666663C483.3333333333343 105.8333333333334 483.3333333333343 97.5000000000006 491.6666666666671 89.1666666666653L537.5000000000014 43.333333333331C545.8333333333343 34.9999999999982 554.1666666666671 34.9999999999982 562.5000000000024 43.333333333331L800.0000000000018 284.9999999999982C800.0000000000018 284.9999999999982 800.0000000000018 284.9999999999982 804.1666666666695 284.9999999999982L837.5000000000033 318.3333333333319C837.5000000000033 318.3333333333319 837.5000000000033 343.3333333333329 837.5000000000033 343.3333333333329L562.5000000000024 618.3333333333338C554.1666666666695 626.6666666666667 545.8333333333367 626.6666666666667 537.5000000000014 618.3333333333338L491.6666666666671 572.4999999999995C483.3333333333343 564.1666666666667 483.3333333333343 555.8333333333338 491.6666666666671 547.4999999999986L670.8333333333343 364.1666666666663H208.3333333333333V293.3333333333334" />
    <glyph glyph-name="arrow_thin_up"
      unicode="&#xEA15;"
      horiz-adv-x="1000" d=" M541.6666666666666 1.6666666666667V460L720.8333333333337 280.8333333333329C729.1666666666666 272.5 737.4999999999994 272.5 745.8333333333347 280.8333333333329L791.666666666669 326.6666666666672C800.0000000000018 335 800.0000000000018 343.3333333333329 791.666666666669 351.6666666666681L550.0000000000018 589.1666666666677C550.0000000000018 589.1666666666677 550.0000000000018 589.1666666666677 550.0000000000018 593.3333333333353L516.6666666666681 626.666666666669C516.6666666666681 626.666666666669 491.6666666666671 626.666666666669 491.6666666666671 626.666666666669L216.6666666666662 351.6666666666681C208.3333333333333 343.3333333333353 208.3333333333333 335.0000000000024 216.6666666666662 326.6666666666672L262.5000000000005 280.8333333333329C270.8333333333333 272.5 279.1666666666662 272.5 287.5000000000014 280.8333333333329L470.8333333333338 460V1.6666666666667H541.6666666666666L541.6666666666666 1.6666666666667zM500 501.6666666666667L500 501.6666666666667L500 501.6666666666667L500 501.6666666666667L500 501.6666666666667z" />
    <glyph glyph-name="arrow_video"
      unicode="&#xEA16;"
      horiz-adv-x="1000" d=" M350.7083333333333 83.4583333333334L791.5833333333331 83.4166666666667L791.5833333333331 -40.0416666666666L125 -39.2083333333334L125 626.6666666666667L250.6666666666667 626.6666666666667L250.6666666666667 168.0000000000001L767.1666666666666 691.125C779.5833333333334 703.7083333333334 795.8333333333334 710 812.1249999999999 710C828.375 710 844.625 703.7083333333334 857.0416666666666 691.125C881.8333333333334 666 881.8333333333334 625.2916666666667 857.0416666666666 600.1666666666667L350.7083333333333 83.4583333333334z" />
    <glyph glyph-name="arrow_video_12"
      unicode="&#xEA17;"
      horiz-adv-x="1000" d=" M832.5833333333333 86.8125000000001L833.3333333333333 658.3125L667.2499999999999 667.6458333333334L667.2499999999999 275.7291666666668L205.3333333333333 730.9791666666666C177.4166666666667 758.5625 132.1666666666667 758.5625 104.25 730.9791666666666C90.3333333333333 717.2291666666667 83.3333333333333 699.1458333333334 83.3333333333333 681.1458333333334C83.3333333333333 663.0625 90.3333333333333 644.9791666666666 104.25 631.2291666666666L574.5833333333333 167.6458333333334L167.25 167.6458333333334L167.25 0.9791666666667L832.4166666666666 0.9791666666667L832.5833333333333 78.6458333333334C832.75 81.3958333333334 832.75 84.0625 832.5833333333333 86.8125000000001" />
    <glyph glyph-name="back"
      unicode="&#xEA18;"
      horiz-adv-x="833.3333333333333" d=" M83.3333333333333 268.3333333333325V43.3333333333334H0V668.3333333333334H83.3333333333333V368.3333333333339L458.3333333333333 589.1666666666677V372.5000000000014L833.3333333333333 589.1666666666677V30.8333333333353L458.3333333333333 247.5000000000015V47.500000000001L83.3333333333333 268.3333333333325z" />
    <glyph glyph-name="blog_icon"
      unicode="&#xEA19;"
      horiz-adv-x="1000" d=" M942.8571428571428 -165C942.8571428571428 -165 57.1428571428572 -165 57.1428571428572 -165C25.5714285714286 -165 0 -139.4285714285714 0 -107.8571428571429C0 -107.8571428571429 0 777.8571428571429 0 777.8571428571429C0 809.4285714285714 25.5714285714286 835 57.1428571428572 835C57.1428571428572 835 942.8571428571428 835 942.8571428571428 835C974.4285714285714 835 1000 809.4285714285714 1000 777.8571428571429C1000 777.8571428571429 1000 -107.8571428571429 1000 -107.8571428571429C1000 -139.4285714285714 974.4285714285714 -165 942.8571428571428 -165zM771.4285714285714 -107.8571428571429C771.4285714285714 -107.8571428571429 771.4285714285714 206.4285714285715 771.4285714285714 206.4285714285715C771.4285714285714 206.4285714285715 228.5714285714286 206.4285714285715 228.5714285714286 206.4285714285715C228.5714285714286 206.4285714285715 228.5714285714286 -107.8571428571429 228.5714285714286 -107.8571428571429C228.5714285714286 -107.8571428571429 771.4285714285714 -107.8571428571429 771.4285714285714 -107.8571428571429zM942.8571428571428 492.1428571428571C942.8571428571428 492.1428571428571 655.6857142857143 492.1428571428571 655.6857142857143 492.1428571428571C648.3428571428572 412.2571428571429 581.7428571428572 349.2857142857143 500 349.2857142857143C413.3714285714286 349.2857142857143 342.8571428571429 419.7714285714286 342.8571428571429 506.4285714285714C342.8571428571429 593.0857142857143 413.3714285714286 663.5714285714286 500 663.5714285714286C571.6857142857143 663.5714285714286 631.657142857143 615.0285714285715 650.4571428571428 549.2857142857142C650.4571428571428 549.2857142857142 942.8571428571428 549.2857142857142 942.8571428571428 549.2857142857142C942.8571428571428 549.2857142857142 942.8571428571428 777.8571428571429 942.8571428571428 777.8571428571429C942.8571428571428 777.8571428571429 57.1428571428572 777.8571428571429 57.1428571428572 777.8571428571429C57.1428571428572 777.8571428571429 57.1428571428572 549.2857142857142 57.1428571428572 549.2857142857142C57.1428571428572 549.2857142857142 342.8571428571429 549.2857142857142 342.8571428571429 549.2857142857142C342.8571428571429 549.2857142857142 342.8571428571429 506.4285714285714 342.8571428571429 506.4285714285714C342.8571428571429 506.4285714285714 342.8571428571429 492.1428571428571 342.8571428571429 492.1428571428571C342.8571428571429 492.1428571428571 57.1428571428572 492.1428571428571 57.1428571428572 492.1428571428571C57.1428571428572 492.1428571428571 57.1428571428572 -107.8571428571429 57.1428571428572 -107.8571428571429C57.1428571428572 -107.8571428571429 171.4285714285715 -107.8571428571429 171.4285714285715 -107.8571428571429C171.4285714285715 -107.8571428571429 171.4285714285715 235 171.4285714285715 235C171.4285714285715 250.7714285714285 184.2 263.5714285714286 200 263.5714285714286C200 263.5714285714286 800 263.5714285714286 800 263.5714285714286C815.8000000000001 263.5714285714286 828.5714285714287 250.7714285714285 828.5714285714287 235C828.5714285714287 235 828.5714285714287 -107.8571428571429 828.5714285714287 -107.8571428571429C828.5714285714287 -107.8571428571429 942.8571428571428 -107.8571428571429 942.8571428571428 -107.8571428571429C942.8571428571428 -107.8571428571429 942.8571428571428 492.1428571428571 942.8571428571428 492.1428571428571zM600 506.4285714285714C600 561.5714285714286 555.1428571428571 606.4285714285714 500 606.4285714285714C444.8571428571429 606.4285714285714 400 561.5714285714286 400 506.4285714285714C400 451.2857142857143 444.8571428571429 406.4285714285714 500 406.4285714285714C555.1428571428571 406.4285714285714 600 451.2857142857143 600 506.4285714285714z" />
    <glyph glyph-name="broken_heart_left"
      unicode="&#xEA1A;"
      horiz-adv-x="1000" d=" M494.9690874999999 731.3950195833334C499.7685291666667 726.06977625 510.3228708333333 715.8268729166666 517.1568583333333 707.5490195833333L419.1176416666666 560.49019625L517.1568583333333 423.2352941666667L419.1176416666666 276.1764708333334L566.1764666666667 119.3137250000001L517.1568583333333 -37.5490208333333C493.7856708333333 -37.5490208333333 466.0681125 -29.4293416666667 447.7572041666666 -14.6135666666667C405.3447575 19.7105250000001 188.5352541666667 199.6615708333334 82.4780583333333 373.7073916666668C5.7391791666667 499.50967375 -2.7120083333333 680.0406933333334 129.5334416666667 781.7475670833334C174.8672833333334 816.5989118333333 227.3481216666667 835 281.3418254166667 835C358.9675566666666 835 434.8195791666667 798.1978237083333 494.9690874999999 731.3950195833334L494.9690874999999 731.3950195833334z" />
    <glyph glyph-name="broken_heart_right"
      unicode="&#xEA1B;"
      horiz-adv-x="666.6666666666666" d=" M382.8738558333333 835C305.248125 835 229.3961 798.1978237083333 169.2465920833333 731.3950195833334C164.4471516666667 726.06977625 153.8928091666667 715.8268729166666 147.05882375 707.5490195833333C147.05882375 707.5490195833333 49.0196079166667 560.49019625 49.0196079166667 560.49019625L147.0588233333333 423.2352941666667L49.0196079166667 276.1764708333334L196.07843125 119.3137250000001C196.07843125 119.3137250000001 147.05882375 -37.5490208333333 147.05882375 -37.5490208333333C170.43001125 -37.5490208333333 198.14757 -29.4293416666667 216.4584783333333 -14.6135666666667C258.8709241666667 19.7105250000001 475.680425 199.6615708333334 581.737625 373.7073916666668C658.4765 499.50967375 666.9276916666666 680.0406933333334 534.6822416666666 781.7475670833334C489.3483958333333 816.5989118333333 436.8675583333333 835 382.8738558333333 835z" />
    <glyph glyph-name="btn-sticker"
      unicode="&#xEAB9;"
      horiz-adv-x="1000" d=" M969.4833333333333 258.5416666666667C990.4833333333332 224.3333333333334 982.1916666666668 178.875 944.5666666666666 153.5833333333334L558.1083333333333 -106.2916666666666C524.3583333333333 -128.9999999999999 475.65 -129.0416666666666 441.9000000000001 -106.2916666666666L55.4416666666667 153.5833333333334C17.8166666666667 178.875 9.4833333333333 224.4166666666668 30.525 258.625L457.8583333333333 -20.75C484.4833333333333 -38.1666666666666 527.15 -37.7916666666666 553.4833333333333 -20.1666666666666L969.4833333333333 258.5416666666667z M567.5458333333333 310.1583333333334C545.4208333333332 301.5750000000001 522.2125 296.2000000000001 499.0041666666667 293.2000000000001C485.0874999999999 291.3666666666667 474.0041666666666 290.7833333333334 467.0041666666667 290.7833333333334C445.7958333333333 290.7833333333334 428.5874999999999 307.8666666666667 428.5874999999999 328.9916666666668C428.5874999999999 350.0750000000001 445.7958333333333 367.1583333333334 467.0041666666667 367.1583333333334C470.8791666666667 367.1583333333334 478.7125 367.5750000000001 489.0874999999999 368.9500000000001C506.5041666666667 371.2000000000001 523.8375 375.2416666666667 539.5875 381.3250000000001C580.1708333333332 397.0333333333334 601.6291666666666 422.0333333333334 601.6291666666666 463.1166666666667C601.6291666666666 484.2 618.8375 501.325 640.0875 501.325C661.3375 501.325 678.5458333333332 484.2 678.5458333333332 463.1166666666667C678.5458333333332 386.8250000000001 635.1708333333332 336.3666666666667 567.5458333333333 310.1583333333334M381.6291666666667 391.2833333333334C357.6291666666667 380.1166666666668 329.1291666666667 390.4500000000001 317.9625 414.3666666666667C306.7958333333334 438.325 317.2125 466.825 341.2125 477.9916666666667C365.2125 489.2 393.7125 478.8666666666667 404.8791666666667 454.9083333333334C416.0458333333333 430.9916666666668 405.6291666666666 402.4916666666667 381.6291666666667 391.2833333333334M475.8375 573.4916666666667C499.8375 584.7 528.3375 574.325 539.5041666666666 550.4083333333333C550.6708333333333 526.45 540.2541666666667 497.95 516.2541666666666 486.7833333333333C492.2541666666666 475.575 463.7541666666667 485.95 452.5875 509.8666666666667C441.4208333333333 533.825 451.8374999999999 562.2833333333333 475.8375 573.4916666666667M955.3375 511.7416666666667L570.1291666666666 772.5333333333333C529.1708333333333 800.2833333333333 470.8375 800.2416666666667 429.8791666666667 772.5333333333333L44.7125 511.7416666666667C-14.9125 471.3666666666667 -14.8708333333333 389.575 44.7125 349.2416666666667L429.8791666666667 88.4083333333334C470.8375 60.6999999999999 529.1708333333333 60.6999999999999 570.1291666666666 88.4083333333334L955.3375 349.2416666666667C1014.9208333333332 389.6166666666668 1014.8791666666666 471.4083333333334 955.3375 511.7416666666667" />
    <glyph glyph-name="camera_alert"
      unicode="&#xEAB2;"
      horiz-adv-x="1142.857142857143" d=" M946.6666666666666 508.8095238095238C977.7186428571428 508.8101228571429 1005.7037476190478 527.5412995238096 1017.5418476190476 556.2481742857142C1029.3799476190477 584.955049047619 1022.7329190476192 617.9677742857143 1000.7075619047617 639.8563295238096C978.6822047619048 661.7448847619048 945.6287047619048 668.1860976190476 916.9961428571428 656.16937C888.3635857142857 644.1526423809523 869.8071285714286 616.0513780952381 870 585C870.2618428571429 542.8442514285714 904.5101047619046 508.8087104761905 946.6666666666666 508.8095238095238L946.6666666666666 508.8095238095238L946.6666666666666 508.8095238095238L946.6666666666666 508.8095238095238zM946.6666666666666 545C924.5752761904762 545 906.6666666666666 562.90861 906.6666666666666 585C906.6666666666666 607.09139 924.5752761904762 625 946.6666666666666 625C968.758057142857 625 986.6666666666666 607.09139 986.6666666666666 585C986.6666666666666 562.90861 968.758057142857 545 946.6666666666666 545L946.6666666666666 545L946.6666666666666 545L946.6666666666666 545z M975.7142857142856 -141.1904761904762L166.1904761904762 -141.1904761904762C74.1754085714286 -140.4062285714286 -0.0033420252667 -65.5898380952382 0 26.4285714285713L0 604.047619047619C0.26156722 696.2495080952381 74.9409680952381 770.9289090476191 167.1428571428572 771.1904761904761L374.7619047619048 771.1904761904761L406.1904761904762 835L747.1428571428571 835L778.5714285714287 771.6666666666666L975.7142857142856 771.6666666666666C1068.1017095238096 771.4042014285715 1142.8575142857142 696.4354171428572 1142.857142857143 604.047619047619L1142.857142857143 26.4285714285713C1142.8575142857142 -65.9592285714286 1068.1017095238096 -140.9280095238095 975.7142857142856 -141.1904761904762L975.7142857142856 -141.1904761904762L975.7142857142856 -141.1904761904762zM167.1428571428572 727.8571428571429C98.9507828571429 727.5948638095238 43.8090194285714 672.2401976190476 43.8095238095238 604.047619047619L43.8095238095238 26.4285714285713C44.0705888571429 -41.578119047619 99.1361680952381 -96.6436952380952 167.1428571428572 -96.9047619047619L976.6666666666669 -96.9047619047619C1044.6733571428572 -96.6436952380952 1099.7389333333333 -41.578119047619 1100 26.4285714285713L1100 604.047619047619C1100.000242857143 636.9666185714286 1086.8907142857145 668.5304357142857 1063.5688333333333 691.7629628571428C1040.2469523809525 714.9954895238095 1008.6330428571428 727.9837542857143 975.7142857142856 727.8571428571429L751.4285714285714 727.8571428571429L720 791.1904761904761L434.2857142857143 791.1904761904761L401.9047619047619 727.8571428571429L167.1428571428572 727.8571428571429L167.1428571428572 727.8571428571429L167.1428571428572 727.8571428571429z M575.2381380952381 25.4817142857141C693.2802619047619 24.7101809523809 800.1288904761906 95.2232095238095 845.8372619047619 204.0592476190476C891.5456380952381 312.8952857142857 867.0846 438.5550404761905 783.8885523809524 522.2984328571429C700.6925 606.0418257142857 575.1958476190476 631.3263247619047 466.0624233333334 586.3326047619048C356.9290014285715 541.3388847619048 285.7168490476191 434.9549323809524 285.7143276190477 316.9102857142857C285.7143276190477 155.9587285714285 416.1913433333334 25.4817142857141 577.1429 25.4817142857141L577.1429 25.4817142857141L575.2381380952381 25.4817142857141L575.2381380952381 25.4817142857141zM575.2381380952381 -10.7087619047619L575.2381380952381 -10.7087619047619C394.5508114285714 -9.6582380952381 248.826970952381 137.4837238095238 249.5263052380953 318.1727476190477C250.22564 498.8617742857143 397.0840871428572 644.871329047619 577.7741333333333 644.5231880952381C758.4641761904762 644.1750471428571 904.7588952380954 497.6006652380952 904.7619476190476 316.9102857142857C904.7619476190476 135.971280952381 758.0819047619048 -10.7087619047619 577.1429 -10.7087619047619L577.1429 -10.7087619047619L575.2381380952381 -10.7087619047619L575.2381380952381 -10.7087619047619z M548.0952380952381 223.571419047619L602.8571428571429 223.571419047619L602.8571428571429 172.619038095238L548.0952380952381 172.619038095238L548.0952380952381 223.571419047619L548.0952380952381 223.571419047619L548.0952380952381 223.571419047619zM599.047619047619 461.6666576190476L599.047619047619 377.8571338095238L585.7142857142858 251.6666571428571L563.3333333333334 251.6666571428571L550 377.8571338095238L550 463.5714195238095L548.0952380952381 461.6666576190476L599.047619047619 461.6666576190476z" />
    <glyph glyph-name="carousel_arrow_web"
      unicode="&#xEAB7;"
      horiz-adv-x="620" d=" M572.0000000000005 308.9999999999998C566.0000000000005 308.9999999999998 558.0000000000005 310.9999999999998 552.0000000000005 316.9999999999998L20.0000000000004 772.9999999999998C8.0000000000004 782.9999999999998 6.0000000000004 802.9999999999998 16.0000000000004 814.9999999999998C26.0000000000004 826.9999999999998 46.0000000000004 828.9999999999998 58.0000000000004 818.9999999999998L590.0000000000005 362.9999999999998C602.0000000000005 352.9999999999998 604.0000000000005 332.9999999999998 594.0000000000005 320.9999999999998C587.9999999999995 312.9999999999996 580 308.9999999999998 572.0000000000005 308.9999999999998z M40 -155C32 -155 24 -151 18 -145C8 -133 8 -113 22 -103L554 353.0000000000001C566.0000000000001 363.0000000000001 586.0000000000001 363.0000000000001 596.0000000000001 349.0000000000001C606.0000000000001 337 606.0000000000001 317 592.0000000000001 307L60.0000000000001 -149C53.9999999999998 -153.0000000000001 46.0000000000002 -155 40 -155z" />
    <glyph glyph-name="cc"
      unicode="&#xEA1C;"
      horiz-adv-x="1000" d=" M851.2499999999999 85L749.4166666666666 85L749.4166666666666 -81.6666666666666L554.9583333333334 85L148.2083333333333 85C112.375 85 83.3333333333333 112.0833333333334 83.3333333333333 145.4583333333334L83.3333333333333 649.5416666666667C83.3333333333333 682.9166666666667 112.375 710 148.2083333333333 710L851.2499999999999 710C887.125 710 916.1666666666666 682.9166666666667 916.1666666666666 649.5416666666667L916.1666666666666 145.4583333333334C916.1666666666666 112.0833333333334 887.125 85 851.2499999999999 85L851.2499999999999 85zM277.375 431.5416666666667C280.2916666666667 442.9583333333333 284.9166666666667 453.1666666666667 291.2916666666667 462.1666666666667C297.6666666666667 471.125 305.9583333333333 478.2916666666667 316.2083333333333 483.625C326.4583333333333 488.9583333333334 338.9166666666667 491.6250000000001 353.5833333333333 491.6250000000001C361.5833333333334 491.6250000000001 369.2916666666667 490.4166666666667 376.625 487.9166666666667C383.9583333333333 485.4583333333334 390.5416666666667 482.0000000000001 396.3333333333333 477.5833333333334C402.1666666666667 473.1666666666667 407 468.0416666666667 410.875 462.1666666666667C414.75 456.3333333333334 417.25 449.875 418.3333333333333 442.8333333333333L481.4583333333333 442.8333333333333C479.4999999999999 458.9583333333333 474.7916666666666 473.2916666666667 467.3333333333333 485.7916666666667C459.875 498.2916666666667 450.3749999999999 508.7083333333333 438.9166666666667 517.2083333333334C427.4166666666667 525.6666666666667 414.4166666666667 532.0833333333334 399.875 536.5C385.3333333333333 540.9583333333333 369.9166666666667 543.1666666666667 353.5833333333333 543.1666666666667C330.875 543.1666666666667 310.4583333333333 539.375 292.3333333333333 531.8333333333334C274.2083333333333 524.2916666666667 258.9166666666667 513.875 246.4583333333333 500.625C234 487.3333333333334 224.4583333333333 471.7916666666667 217.7916666666667 453.9583333333334C211.1666666666666 436.1666666666668 207.8333333333334 416.8333333333334 207.8333333333334 396.0000000000001C207.8333333333334 375.7083333333334 211.1666666666666 356.7916666666667 217.7916666666667 339.2500000000001C224.4583333333333 321.6666666666667 234 306.375 246.4583333333333 293.375C258.9166666666667 280.375 274.2083333333333 270.1666666666668 292.3333333333333 262.75C310.4583333333333 255.3333333333334 330.875 251.625 353.5833333333333 251.625C371.8333333333333 251.625 388.5833333333333 254.2083333333334 403.8333333333333 259.4166666666668C419.0416666666667 264.625 432.3333333333333 272.1666666666668 443.6666666666667 282.0416666666667C455.0416666666666 291.9583333333334 464.1666666666667 303.9166666666667 471.0833333333333 317.9583333333334C477.9999999999999 332.0000000000001 482.2916666666666 347.75 483.9583333333333 365.2083333333334L420.8333333333333 365.2083333333334C418.3333333333333 346.4583333333334 411.5 331.3333333333334 400.2916666666667 319.9166666666668C389.0833333333333 308.4583333333334 373.5 302.7500000000001 353.5833333333333 302.7500000000001C338.9166666666667 302.7500000000001 326.4583333333333 305.4166666666667 316.2083333333333 310.75C305.9583333333333 316.0833333333334 297.6666666666667 323.1666666666667 291.2916666666667 332.0000000000001C284.9166666666667 340.8333333333334 280.2916666666667 350.7916666666667 277.375 361.875C274.4583333333333 372.9166666666667 273 384.2916666666667 273 396.0000000000001C273 408.25 274.4583333333333 420.0833333333334 277.375 431.5416666666667L277.375 431.5416666666667zM585.0416666666666 431.5416666666667C587.9583333333334 442.9583333333333 592.5833333333333 453.1666666666667 598.9583333333333 462.1666666666667C605.3333333333334 471.125 613.625 478.2916666666667 623.875 483.625C634.1249999999999 488.9583333333334 646.5833333333334 491.6250000000001 661.2499999999999 491.6250000000001C669.25 491.6250000000001 676.9583333333333 490.4166666666667 684.2916666666665 487.9166666666667C691.625 485.4583333333334 698.2083333333334 482.0000000000001 704 477.5833333333334C709.8333333333334 473.1666666666667 714.6666666666666 468.0416666666667 718.5416666666666 462.1666666666667C722.4166666666666 456.3333333333334 724.9166666666666 449.875 725.9999999999999 442.8333333333333L789.125 442.8333333333333C787.1666666666666 458.9583333333333 782.4583333333333 473.2916666666667 775.0416666666666 485.7916666666667C767.5416666666666 498.2916666666667 758.0416666666666 508.7083333333333 746.5833333333333 517.2083333333334C735.0833333333333 525.6666666666667 722.0833333333333 532.0833333333334 707.5416666666667 536.5C693 540.9583333333333 677.5833333333333 543.1666666666667 661.2499999999999 543.1666666666667C638.5416666666666 543.1666666666667 618.125 539.375 600 531.8333333333334C581.875 524.2916666666667 566.5833333333334 513.875 554.125 500.625C541.6666666666666 487.3333333333334 532.125 471.7916666666667 525.4583333333334 453.9583333333334C518.8333333333333 436.1666666666668 515.5 416.8333333333334 515.5 396.0000000000001C515.5 375.7083333333334 518.8333333333333 356.7916666666667 525.4583333333334 339.2500000000001C532.125 321.6666666666667 541.6666666666666 306.375 554.125 293.375C566.5833333333334 280.375 581.875 270.1666666666668 600 262.75C618.125 255.3333333333334 638.5416666666666 251.625 661.2499999999999 251.625C679.5 251.625 696.25 254.2083333333334 711.5 259.4166666666668C726.7083333333333 264.625 740 272.1666666666668 751.3333333333333 282.0416666666667C762.7083333333333 291.9583333333334 771.8333333333334 303.9166666666667 778.75 317.9583333333334C785.6666666666667 332.0000000000001 789.9583333333333 347.75 791.6249999999999 365.2083333333334L728.5 365.2083333333334C725.9999999999999 346.4583333333334 719.1666666666667 331.3333333333334 707.9583333333333 319.9166666666668C696.75 308.4583333333334 681.1666666666666 302.7500000000001 661.2499999999999 302.7500000000001C646.5833333333334 302.7500000000001 634.1249999999999 305.4166666666667 623.875 310.75C613.625 316.0833333333334 605.3333333333334 323.1666666666667 598.9583333333333 332.0000000000001C592.5833333333333 340.8333333333334 587.9583333333334 350.7916666666667 585.0416666666666 361.875C582.125 372.9166666666667 580.6666666666666 384.2916666666667 580.6666666666666 396.0000000000001C580.6666666666666 408.25 582.125 420.0833333333334 585.0416666666666 431.5416666666667L585.0416666666666 431.5416666666667z" />
    <glyph glyph-name="checkmark"
      unicode="&#xEA1D;"
      horiz-adv-x="1000" d=" M708.3333333333333 543.3333333333334L406.25 248.7916666666668L291.6666666666667 360.7500000000001L229.1666666666667 299.6665416666667L406.25 126.6666666666668L770.8333333333333 482.249875L708.3333333333333 543.3333333333333" />
    <glyph glyph-name="close"
      unicode="&#xEA1E;"
      horiz-adv-x="1000" d=" M791.6666666666666 509.91025625L674.9102583333333 626.6666666666667L500 451.7564104166667L325.1346154166667 626.6666666666667L208.378205 509.91025625L383.2435895833334 335L208.3333333333333 160.0897416666667L325.08974375 43.3333333333334L500 218.2435916666667L674.9102583333333 43.3333333333334L791.6666666666666 160.0897416666667L616.8461541666667 335L791.6666666666666 509.91025625L791.6666666666666 509.91025625z" />
    <glyph glyph-name="close_thin"
      unicode="&#xEABA;"
      horiz-adv-x="1000" d=" M606.214925 335L977.9360791666666 706.7211554166666C1007.4031041666666 736.1881816666667 1007.2538916666666 783.5930095833334 977.92345 812.9234509166666C948.3885249999998 842.45837875 901.0446208333332 842.2595463333333 871.7211541666666 812.9360795L500 441.2149241666667L128.2788445833333 812.9360795C98.9553779166667 842.2595463333333 51.6114770833333 842.45837875 22.0765490833333 812.9234509166666C-7.2538922916667 783.5930095833334 -7.403105625 736.1881816666667 22.0639205 706.7211554166666L393.7850758333334 335L22.0639205 -36.7211541666666C-7.403105625 -66.1881833333332 -7.2538922916667 -113.5930083333333 22.0765490833333 -142.92345C51.6114770833333 -172.4583791666666 98.9553779166667 -172.2595458333334 128.2788445833333 -142.9360791666667L500 228.785075L871.7211541666666 -142.9360791666667C901.0446208333332 -172.2595458333334 948.3885249999998 -172.4583791666666 977.92345 -142.92345C1007.2538916666666 -113.5930083333333 1007.4031041666666 -66.1881833333332 977.9360791666666 -36.7211541666666L606.214925 335L606.214925 335z" />
    <glyph glyph-name="close_video_12"
      unicode="&#xEA1F;"
      horiz-adv-x="583.3333333333333" d=" M466.6666666666686 668.3333333333334L291.6666666666667 493.3333333333314L116.6666666666648 668.3333333333334H0V551.6666666666686L175.0000000000019 376.6666666666667L0 201.6666666666648V85H116.6666666666648L291.6666666666667 260.000000000002L466.6666666666686 85H583.3333333333333V201.6666666666648L408.3333333333315 376.6666666666667L583.3333333333333 551.6666666666686V668.3333333333334L466.6666666666686 668.3333333333334z" />
    <glyph glyph-name="customize"
      unicode="&#xEA20;"
      horiz-adv-x="1000" d=" M500 397.5C465.4583333333333 397.5 437.5416666666667 369.5 437.5416666666667 335.0833333333334C437.5416666666667 300.5 465.4583333333333 272.5 500 272.5C534.4583333333333 272.5 562.5 300.4166666666668 562.5 335.0833333333334C562.5 369.5 534.5416666666666 397.5 500 397.5L500 397.5zM500 585C292.9166666666667 585 125 335.0833333333334 125 335.0833333333334C125 335.0833333333334 292.9166666666667 85 500 85C707.125 85 875 335.0833333333334 875 335.0833333333334C875 335.0833333333334 707.125 585 500 585L500 585zM500 178.8333333333334C413.6666666666667 178.8333333333334 343.75 248.75 343.75 335C343.75 421.2500000000001 413.7083333333333 491.25 500 491.25C586.1666666666666 491.25 656.25 421.2500000000001 656.25 335C656.25 248.75 586.1666666666666 178.8333333333334 500 178.8333333333334L500 178.8333333333334z" />
    <glyph glyph-name="delete"
      unicode="&#xEA21;"
      horiz-adv-x="1000" d=" M708.3333333333333 460L708.3333333333333 85C711.9878625 57.5032416666667 694.0532291666666 43.2589750000001 666.6666666666666 43.3511374999999L333.3333333333333 43.3511666666667C312.2581745833333 43.259 294.2834966666667 57.5032666666667 291.6666666666667 85L291.6666666666667 460C291.6590370833333 484.2287579166667 273.3803166666667 502.1233658333333 250 501.6666666666667C229.14420575 502.1233658333333 208.70193789625 484.2287441666667 208.3333333333333 460L208.3333333333333 62.4444291666667C208.70193789625 -3.8096541666666 268.41481625 -39.5243833333333 334.7675075 -40L666.6666666666666 -40C742.2796958333333 -39.5244083333332 792.0532458333333 -5.3165124999999 791.6666666666666 62.4444208333334L791.6666666666666 460C792.0532208333333 484.2287325 770.8044708333332 502.1233404166667 750 501.6666666666667C726.5683583333333 502.1233404166667 709.2793708333334 482.0477275 708.3333333333333 460z M375 168.3333333333334C375 168.3333291666667 374.8219808333334 126.3462375 416.6666666666667 126.6666666666668C458.5113524999999 126.9870958333334 458.5113524999999 168.3333291666667 458.5113524999999 168.3333291666667L458.5113524999999 459.9999979166666C458.9721054166666 482.13807 440.83862625 502.17783625 416.6666666666667 501.6666666666667C396.602515 502.17783625 375 481.6801966666667 375 460L375 168.3333333333334z M541.6666666666666 168.3333333333334C541.6666666666666 168.3333291666667 541.4886475 126.3462375 583.3333333333333 126.6666666666668C625.1780208333333 126.9870958333334 625.1780208333333 168.3333291666667 625.1780208333333 168.3333291666667L625.1780208333333 459.9999979166666C625.6387708333333 482.13807 607.5052929166666 502.17783625 583.3333333333333 501.6666666666667C563.2691816666667 502.17783625 541.6666666666666 481.6801966666667 541.6666666666666 460L541.6666666666666 168.3333333333334z M750.5891708333332 585C773.3979875000001 586.5182495833333 791.8365416666667 603.46323625 791.5725708333332 626.6666666666667C791.8365416666667 647.699347375 773.3979749999999 662.9346405416667 750 668.3333333333334L250 668.3333333333334C227.8453266666667 662.9346405416667 208.4638801295833 647.6993470833334 208.3333333333333 626.6666666666667C208.4638801295833 603.4632358333333 232.87447275 586.5182495833333 255.6420408333334 585L750.5891708333332 585z" />
    <glyph glyph-name="desktop"
      unicode="&#xEA22;"
      horiz-adv-x="1064.516129032258" d=" M145.1612903225807 705.9677419354839L209.6774193548387 705.9677419354839L209.6774193548387 641.4516129032259L145.1612903225807 641.4516129032259L145.1612903225807 705.9677419354839z M274.1935483870968 705.9677419354839L338.7096774193548 705.9677419354839L338.7096774193548 641.4516129032259L274.1935483870968 641.4516129032259L274.1935483870968 705.9677419354839z M403.225806451613 705.9677419354839L467.741935483871 705.9677419354839L467.741935483871 641.4516129032259L403.225806451613 641.4516129032259L403.225806451613 705.9677419354839z M955.8518161290322 835L108.633064516129 835C66.445564516129 835 32.258064516129 799.7096774193549 32.258064516129 756.1290322580645L32.258064516129 -86.1290322580645C32.258064516129 -129.6774193548388 66.445564516129 -165 108.633064516129 -165L955.8518161290322 -165C998.070564516129 -165 1032.258064516129 -129.6774193548388 1032.258064516129 -86.1290322580645L1032.258064516129 756.1290322580645C1032.258064516129 799.7096774193549 998.070564516129 835 955.8518161290322 835L955.8518161290322 835zM94.758064516129 512.4193548387098L969.758064516129 512.4193548387098L969.758064516129 -100.4838709677419L94.758064516129 -100.4838709677419L94.758064516129 512.4193548387098zM94.758064516129 770.483870967742L969.758064516129 770.483870967742L969.758064516129 576.9354838709678L94.758064516129 576.9354838709678L94.758064516129 770.483870967742z" />
    <glyph glyph-name="diamond"
      unicode="&#xEA23;"
      horiz-adv-x="1000" d=" M502.0833333333333 3.4154625000001C499.1249999999999 -0.0428708333333 459.3333333333333 1.9987958333334 458.1249999999999 3.4154625000001L83.7083333333333 419.4987958333334L83.3333333333333 460.8737958333334L280.9583333333333 660.1237958333334C286.7916666666667 665.9154625 294.75 669.1237958333334 303.0416666666667 668.1654625L655.8333333333333 668.1654625C664.125 669.1237958333334 672.0833333333333 665.9154625 677.9166666666666 660.1654625L873.6666666666666 460.5821291666667C874.4999999999999 460.3321291666667 874.4999999999999 419.4154625 874.4999999999999 419.4154625L502.0833333333333 3.4154625000001L502.0833333333333 3.4154625000001zM570.0416666666666 419.2904625L388.1666666666667 418.9987958333334L479.3333333333333 134.7487958333334L570.0416666666666 419.2904625L570.0416666666666 419.2904625zM542.0416666666666 125.7487958333335L772.7499999999999 419.6654625L635.625 419.4154625L542.0416666666666 125.7487958333335L542.0416666666666 125.7487958333335zM418.25 124.0821291666666L322.75 418.8737958333334L187.0833333333334 418.6237958333334L418.25 124.0821291666666L418.25 124.0821291666666zM284.875 574.6654625L169.875 461.8737958333334L310.4166666666667 461.5404625L284.875 574.6654625L284.875 574.6654625zM336.8333333333333 605.2071291666666L354.4166666666667 511.8321291666667L438.1666666666667 605.2071291666666L336.8333333333333 605.2071291666666L336.8333333333333 605.2071291666666zM386.875 461.3737958333333L570.4166666666666 460.9571291666667L479 583.8737958333334L386.875 461.3737958333333L386.875 461.3737958333333zM522.75 605.2071291666666L601.0416666666666 514.3737958333334L621.6666666666666 605.2071291666666L522.75 605.2071291666666L522.75 605.2071291666666zM673.3333333333333 575.3737958333334L647.4583333333333 460.7487958333334L790.5416666666666 460.4154625L673.3333333333333 575.3737958333334L673.3333333333333 575.3737958333334z" />
    <glyph glyph-name="dotdotdot"
      unicode="&#xEA24;"
      horiz-adv-x="1000" d=" M863.0966083333333 336.59372125C863.0966083333333 291.8274470833334 826.7974374999999 255.5687904166668 782.071675 255.5687904166668C737.3054 255.5687904166668 701.0467458333333 291.8274470833334 701.0467458333333 336.59372125C701.0467458333333 381.3194829166667 737.3054 417.6186518916667 782.071675 417.6186518916667C826.7974374999999 417.6186518916667 863.0966083333333 381.3194829166667 863.0966083333333 336.59372125 M579.5093499999999 336.59372125C579.5093499999999 291.8274470833334 543.2101791666666 255.5687904166668 498.4844183333333 255.5687904166668C453.7181441666667 255.5687904166668 417.4594874999999 291.8274470833334 417.4594874999999 336.59372125C417.4594874999999 381.3194829166667 453.7181441666667 417.6186518916667 498.4844183333333 417.6186518916667C543.2101791666666 417.6186518916667 579.5093499999999 381.3194829166667 579.5093499999999 336.59372125 M295.92209125 336.59372125C295.92209125 291.8274470833334 259.6229225 255.5687904166668 214.8971608333334 255.5687904166668C170.13088625 255.5687904166668 133.8722299166667 291.8274470833334 133.8722299166667 336.59372125C133.8722299166667 381.3194829166667 170.13088625 417.6186518916667 214.8971608333334 417.6186518916667C259.6229225 417.6186518916667 295.92209125 381.3194829166667 295.92209125 336.59372125" />
    <glyph glyph-name="drafts"
      unicode="&#xEA25;"
      horiz-adv-x="1000" d=" M750 126.6666666666668L833.3333333333333 126.6666666666668L833.3333333333333 209.1666666666668L750 209.1666666666668L750 126.6666666666668zM750 -40L791.6666666666666 -40C814.7083333333334 -40 833.3333333333333 -21.375 833.3333333333333 1.6666666666667L833.3333333333333 43.3333333333334L750 43.3333333333334L750 -40L750 -40zM541.6666666666666 -40L665.9166666666666 -40L665.9166666666666 43.3333333333334L541.6666666666666 43.3333333333334L541.6666666666666 -40zM333.3333333333333 -40L457.9583333333333 -40L457.9583333333333 43.3333333333334L333.3333333333333 43.3333333333334L333.3333333333333 -40zM166.6666666666667 1.6666666666667C166.6666666666667 -21.375 185.2916666666667 -40 208.3333333333333 -40L250 -40L250 43.3333333333334L166.6666666666667 43.3333333333334L166.6666666666667 1.6666666666667L166.6666666666667 1.6666666666667zM166.6666666666667 126.6666666666668L250 126.6666666666668L250 210L166.6666666666667 210L166.6666666666667 126.6666666666668zM166.6666666666667 460L250 460L250 543.3333333333334L166.6666666666667 543.3333333333334L166.6666666666667 460zM166.6666666666667 293.3333333333334L250 293.3333333333334L250 376.6666666666667L166.6666666666667 376.6666666666667L166.6666666666667 293.3333333333334zM166.6666666666667 668.3333333333334L166.6666666666667 626.6666666666667L250 626.6666666666667L250 710L208.3333333333333 710C185.2916666666667 710 166.6666666666667 691.3333333333334 166.6666666666667 668.3333333333334L166.6666666666667 668.3333333333334zM333.5416666666667 626.6666666666667L415.8333333333333 626.6666666666667L415.8333333333333 710L333.5416666666667 710L333.5416666666667 626.6666666666667zM805.5833333333333 498.9166666666666C801.2083333333333 500.4583333333334 796.5833333333333 501.6666666666667 791.6666666666666 501.6666666666667L666.6666666666666 501.6666666666667L666.6666666666666 668.3333333333334C666.6666666666666 691.3333333333334 648.0416666666666 710 625 710L500 710L500 626.6666666666667L583.3333333333333 626.6666666666667L583.3333333333333 460C583.3333333333333 436.9583333333333 601.9583333333333 418.3333333333334 625 418.3333333333334L750 418.3333333333334L750 293.3333333333334L833.3333333333333 293.3333333333334L833.3333333333333 460.0416666666667C833.3333333333333 478.0833333333333 821.7083333333333 493.0833333333334 805.5833333333333 498.9166666666666L805.5833333333333 498.9166666666666z" />
    <glyph glyph-name="drag"
      unicode="&#xEA26;"
      horiz-adv-x="1000" d=" M625 251.6666666666668L333.3333333333333 251.6666666666668L479.1666666666666 85L625 251.6666666666668zM479.1666666666666 543.3333333333334L333.3333333333333 376.6666666666667L625 376.6666666666667L479.1666666666666 543.3333333333334L479.1666666666666 543.3333333333334z" />
    <glyph glyph-name="edit"
      unicode="&#xEA27;"
      horiz-adv-x="1000" d=" M357.9583333333334 131.6118416666667L269.5833333333334 102.1535083333333L299.0416666666667 190.5285083333334L565.5833333333333 457.0701754166666L624.5 398.1118420833334L357.9583333333334 131.6118416666667L357.9583333333334 131.6118416666667zM624.5416666666666 515.9868420833334L565.6249999999999 574.90350875L506.6666666666666 515.9868420833334L226.2083333333334 235.5285083333335L220 216.8618416666667L137.8333333333333 -29.5964916666666L295.9583333333333 23.0701750000001L384.3333333333333 52.5285083333334L403 58.7785083333333L416.875 72.6951750000002L742.3333333333334 398.1118420833334L624.5416666666666 515.9868420833334L624.5416666666666 515.9868420833334z M860.2083333333333 574.90350875L742.375 692.7785087916667C726.0833333333334 709.0285087708334 699.7083333333333 709.0285087708334 683.4166666666666 692.7785087916667L623.1666666666666 632.4451754166666L799.9166666666666 455.6951754166667L860.2083333333333 515.9868420833334C876.5 532.27850875 876.5 558.6118420833334 860.2083333333333 574.90350875" />
    <glyph glyph-name="edit_appearance"
      unicode="&#xEAB3;"
      horiz-adv-x="1000" d=" M494.5302445833333 751.6666666666666C273.85456875 751.6666666666666 94.9163445833333 567.7579366666666 94.9163445833333 340.9523808333334S273.85456875 -69.7619041666666 494.5302445833333 -69.7619041666666C531.383525 -69.7619041666666 561.1325625 -39.1865083333332 561.1325625 -1.3095249999999C561.1325625 16.4880958333334 554.4723291666667 32.4603166666668 543.8159583333334 44.7817458333335C533.6036041666666 56.6468250000002 526.9433708333333 72.6190458333335 526.9433708333333 89.9603166666668C526.9433708333333 127.8373000000002 556.6924083333333 158.4127000000002 593.5456875 158.4127000000002H672.1364208333332C794.6846833333333 158.4127000000002 894.1441458333331 260.6349208333336 894.1441458333331 386.5873016666669C894.1441458333334 588.2936508333333 715.2059208333334 751.6666666666666 494.5302445833333 751.6666666666666zM250.32175 340.9523808333334C213.4684683333333 340.9523808333334 183.7194333333333 371.5277779166667 183.7194333333333 409.4047620833334C183.7194333333333 447.2817454166667 213.4684683333333 477.85714125 250.32175 477.85714125C287.1750320833334 477.85714125 316.9240666666667 447.2817441666667 316.9240666666667 409.4047604166667C316.9240666666667 371.5277758333334 287.1750320833334 340.9523787500001 250.32175 340.9523787500001zM383.5263833333333 523.4920633333334C346.6731016666667 523.4920633333334 316.9240666666667 554.0674604166668 316.9240666666667 591.9444445833334S346.6731020833334 660.396825 383.5263833333333 660.396825C420.3796654166667 660.396825 450.1286999999999 629.8214291666667 450.1286999999999 591.9444445833333C450.1286999999999 554.0674604166667 420.3796654166667 523.4920633333334 383.5263833333333 523.4920633333334zM605.5341041666667 523.4920633333334C568.680825 523.4920633333334 538.9317875 554.0674604166668 538.9317875 591.9444445833334S568.680825 660.3968254166667 605.5341041666667 660.3968254166667C642.3873875 660.3968254166667 672.1364208333334 629.8214295833334 672.1364208333334 591.94444625S642.3873875 523.4920650000001 605.5341041666668 523.4920650000001zM738.7387375 340.9523808333334C701.8854583333333 340.9523808333334 672.1364208333332 371.5277779166667 672.1364208333332 409.4047620833334C672.1364208333332 447.2817454166667 701.8854583333332 477.85714125 738.7387375 477.85714125C775.5920208333333 477.85714125 805.3410541666667 447.2817441666667 805.3410541666667 409.4047604166667C805.3410541666667 371.5277758333334 775.5920208333333 340.9523787500001 738.7387375 340.9523787500001z" />
    <glyph glyph-name="edit_legacy"
      unicode="&#xEA28;"
      horiz-adv-x="1000" d=" M136.8538625 -81.6666666666666C61.3610895833333 -81.6666666666666 0 -22.4818499999999 0 50.5547666666666L0 570.0860175C0 643.1225900000001 61.3610895833333 702.3074516666667 136.8538625 702.3074516666667L626.0692 702.3074516666667C635.3663166666666 702.3074516666667 633.135 701.4079516666667 641.8743208333333 699.60904375L533.6556291666667 609.8423795833334L128.8583133333333 609.8423795833334C110.0781091666667 609.8423795833334 94.6448504166667 595.0911229166667 94.6448504166667 576.9219320833333L94.6448504166667 43.8986875000002C94.6448504166667 25.7294958333334 110.0781091666667 10.9782875000001 128.8583133333333 10.9782875000001L679.2488 10.9782875000001C698.0290041666667 10.9782875000001 713.4622625000001 25.7294958333334 713.4622625000001 43.8986875000002L713.4622625000001 255.6328916666668L809.4087124999999 354.7539500000001L809.4087124999999 50.5547666666666C809.4087124999999 -22.4818499999999 748.2335666666667 -81.6666666666666 672.5548625 -81.6666666666666L136.8538625 -81.6666666666666zM531.0524541666666 197.7072958333334L335.4407 150.9350916666667L383.7858104166666 340.0027416666668L383.9717412500001 340.0027416666668L706.0245541666667 651.397695L853.2911958333332 509.1022479166667L531.0524541666666 197.7072958333334zM460.7660791666666 340.5424333333334L485.1245875 316.976425L730.754925 554.4353070833333L706.3964625 578.00131375L460.7660791666666 340.5424333333334zM903.12385 557.4934779166667L756.0431375 699.60904375L852.9192874999999 793.3333333333334L1000 651.0378858333333L903.12385 557.4934779166667z" />
    <glyph glyph-name="edit_pencil"
      unicode="&#xEA29;"
      horiz-adv-x="1000" d=" M225 215.0416666666668L224.9583333333333 215.0416666666668L224.9583333333333 215L173.8333333333333 8.6250000000001L380.2083333333333 59.75L380.2500000000001 59.75L380.2916666666666 59.75L380.2916666666666 59.7916666666667L720.2916666666666 399.7916666666667L564.9583333333333 555L225 215.0416666666668L225 215.0416666666668zM590.9583333333333 449.2083333333333L331.75 189.9583333333334L306.125 215.5833333333334L565.375 474.7916666666667L590.9583333333333 449.2083333333333L590.9583333333333 449.2083333333333zM719.9166666666665 709.9166666666667L617.7083333333333 607.7083333333334L772.9583333333334 452.4166666666667L875.1666666666666 554.625L719.9166666666665 709.9166666666667L719.9166666666665 709.9166666666667z" />
    <glyph glyph-name="editor_bold"
      unicode="&#xEA2A;"
      horiz-adv-x="1000" d=" M517.6666666666666 374.7500000000001C534 374.7500000000001 547.4166666666666 378.6250000000001 557.9166666666666 386.4166666666667C568.4166666666666 394.1666666666667 573.6666666666666 406.8333333333334 573.6666666666666 424.3333333333334C573.6666666666666 434.0416666666668 571.9166666666666 442 568.4166666666666 448.25C564.9166666666666 454.4583333333334 560.25 459.3333333333334 554.4166666666666 462.8333333333333C548.5833333333334 466.3333333333333 541.875 468.7500000000001 534.2916666666666 470.1250000000001C526.7083333333333 471.5 518.8333333333333 472.1666666666667 510.6666666666666 472.1666666666667L424.9166666666667 472.1666666666667L424.9166666666667 374.7500000000001L517.6666666666666 374.7500000000001L517.6666666666666 374.7500000000001zM529.3333333333334 543.3333333333334C549.1666666666666 543.3333333333334 567.25 541.5833333333334 583.5833333333333 538.0833333333333C599.9166666666666 534.5833333333334 613.9166666666666 528.8333333333334 625.5833333333333 520.875C637.25 512.9166666666667 646.2916666666666 502.2916666666667 652.7083333333333 489.0833333333334C659.125 475.8333333333334 662.3333333333334 459.5 662.3333333333334 440.0833333333334C662.3333333333334 419.0833333333334 657.5833333333333 401.5833333333334 648.0416666666666 387.5833333333334C638.5 373.5833333333334 624.4166666666666 362.125 605.75 353.1666666666667C631.4166666666666 345.75 650.5833333333334 332.8333333333334 663.2083333333333 314.3750000000001C675.8333333333333 295.875 682.1666666666666 273.625 682.1666666666666 247.5833333333334C682.1666666666666 226.5833333333334 678.0833333333334 208.375 669.9166666666666 193.0416666666668C661.75 177.6666666666668 650.75 165.125 636.9583333333334 155.4166666666668C623.1666666666666 145.7083333333334 607.4166666666666 138.5 589.7083333333334 133.8333333333334C572 129.1666666666666 553.8333333333333 126.8333333333335 535.1666666666666 126.8333333333335L333.3333333333333 126.8333333333335L333.3333333333333 543.3333333333334L529.3333333333334 543.3333333333334L529.3333333333334 543.3333333333334zM522.9166666666666 198C531.875 198 540.4166666666666 198.8750000000001 548.5833333333334 200.625C556.75 202.375 563.9583333333333 205.2916666666668 570.1666666666666 209.375C576.375 213.4583333333334 581.3333333333333 219 585.0416666666666 226C588.75 233 590.5833333333333 241.9583333333334 590.5833333333333 252.8333333333334C590.5833333333333 274.2083333333334 584.5416666666666 289.5 572.5 298.6250000000001C560.4583333333334 307.75 544.5 312.3333333333334 524.6666666666666 312.3333333333334L424.9166666666667 312.3333333333334L424.9166666666667 198L522.9166666666666 198L522.9166666666666 198z" />
    <glyph glyph-name="editor_camera"
      unicode="&#xEA2B;"
      horiz-adv-x="1000" d=" M741.4583333333334 590.7083333333334L619.25 590.7083333333334L596.7916666666666 626.6666666666667L402.4583333333333 626.6666666666667L380 590.7083333333334L257.7083333333333 590.7083333333334C207.6666666666667 590.7083333333334 166.6666666666667 548.625 166.6666666666667 497.1666666666667L166.6666666666667 137.1666666666666C166.6666666666667 85.7083333333334 207.6666666666667 43.6250000000001 257.7083333333333 43.6250000000001L741.4583333333334 43.6250000000001C791.5833333333334 43.6250000000001 832.5416666666667 85.7083333333334 832.5416666666667 137.1666666666666L832.5416666666667 497.1666666666667C832.5416666666667 548.625 791.5833333333334 590.7083333333334 741.4583333333334 590.7083333333334L741.4583333333334 590.7083333333334zM501.5416666666667 100.4166666666667C392.25 100.4166666666667 303.625 191.4583333333334 303.625 303.75C303.625 416.0416666666667 392.25 507.0833333333334 501.5416666666667 507.0833333333334C610.8333333333333 507.0833333333334 699.4583333333333 416.0416666666667 699.4583333333333 303.75C699.4583333333333 191.4583333333334 610.8333333333333 100.4166666666667 501.5416666666667 100.4166666666667L501.5416666666667 100.4166666666667zM723.9583333333333 437.9583333333334C700.1666666666665 437.9583333333334 680.8333333333333 457.7916666666666 680.8333333333333 482.2500000000001C680.8333333333333 506.7083333333334 700.1666666666665 526.5 723.9583333333333 526.5C747.75 526.5 767.0416666666666 506.7083333333334 767.0416666666666 482.2500000000001C767.0416666666666 457.7916666666666 747.75 437.9583333333334 723.9583333333333 437.9583333333334L723.9583333333333 437.9583333333334zM501.5416666666667 443.1250000000001C415.7916666666667 443.1250000000001 346.2916666666667 375.1666666666667 346.2916666666667 291.2916666666668C346.2916666666667 247.2916666666667 365.5416666666667 207.7916666666666 396.125 180.0416666666668C395 187.4583333333334 394.2083333333333 195.0000000000001 394.2083333333333 202.7500000000001C394.2083333333333 286.6666666666668 463.7083333333333 354.6250000000001 549.4583333333333 354.6250000000001C590.1666666666666 354.6250000000001 627.125 339.1666666666667 654.8333333333333 314.0416666666668C643.5833333333333 387.0833333333334 579.3333333333333 443.1250000000001 501.5416666666667 443.1250000000001L501.5416666666667 443.1250000000001z" />
    <glyph glyph-name="editor_carets"
      unicode="&#xEA2C;"
      horiz-adv-x="1000" d=" M321.2083333333333 525.1666666666667L166 334.4583333333334L321.2083333333333 143.7916666666668C330.5833333333333 132.2083333333334 344.625 126.1666666666668 358.75 126.1666666666668C369.0416666666667 126.1666666666668 379.4166666666667 129.375 388.1250000000001 136C408.8333333333334 151.625 412.5 180.5416666666666 396.2083333333333 200.5L287.2083333333333 334.4583333333334L396.2083333333333 468.4166666666667C412.5 488.3750000000001 408.8333333333334 517.2916666666667 388.1250000000001 532.9583333333334C367.4583333333333 548.625 337.4583333333333 545.0833333333333 321.2083333333333 525.1666666666667z M677.9166666666666 525.1666666666667C661.6666666666666 545.0833333333333 631.6666666666666 548.625 611 532.9583333333334C590.2916666666666 517.2916666666667 586.625 488.3750000000001 602.8749999999999 468.4166666666667L711.9166666666665 334.4583333333334L602.8749999999999 200.5C586.625 180.5416666666666 590.2916666666666 151.625 611 136C619.7083333333333 129.375 630.0833333333333 126.1666666666668 640.375 126.1666666666668C654.5 126.1666666666668 668.5 132.2083333333334 677.9166666666666 143.7916666666668L833.1249999999999 334.4583333333334L677.9166666666666 525.1666666666667" />
    <glyph glyph-name="editor_crossout"
      unicode="&#xEA2D;"
      horiz-adv-x="1000" d=" M482.7083333333333 382.9166666666667C498.375 378.7500000000001 518.875 373.4583333333334 544.2083333333333 367.0416666666667C551.7916666666666 365.5416666666668 562.25 362.7916666666667 575.6666666666666 358.8333333333333C589.0833333333333 354.8333333333334 602.4166666666666 348.5 615.6666666666666 339.8333333333334C618.4999999999999 337.9583333333334 620.9166666666666 335.4166666666667 623.5833333333333 333.2916666666667L750 333.2916666666667L750 291.625L655.75 291.625C660.9166666666666 279.375 664.4166666666666 265.7083333333334 664.4166666666666 249.125C664.4166666666666 230.5833333333334 660.8333333333333 213.4166666666668 653.6249999999999 197.5416666666668C646.4583333333334 181.6666666666668 635.7916666666666 167.9583333333334 621.625 156.4166666666666C607.4166666666666 144.8750000000001 589.875 135.9166666666668 568.875 129.5000000000001C547.9166666666666 123.0833333333335 523.625 119.875 496.0416666666666 119.875C473.7499999999999 119.875 452.0833333333333 122.625 431.125 128.0833333333334C410.125 133.5416666666666 391.625 142.1666666666668 375.5416666666667 153.875C359.5 165.5833333333334 346.75 180.5 337.2916666666667 198.6666666666668C327.8333333333333 216.7916666666668 323.2916666666667 238.3333333333334 323.6666666666667 263.2916666666668L409.875 263.2916666666668C409.875 249.6666666666668 412.3333333333334 238.1666666666668 417.25 228.7083333333334C422.125 219.25 428.6666666666667 211.625 436.7916666666667 205.75C444.9166666666667 199.875 454.4583333333333 195.5416666666668 465.4166666666666 192.7083333333334C476.3749999999999 189.875 487.7083333333333 188.4583333333334 499.4166666666667 188.4583333333334C507.3749999999999 188.4583333333334 515.875 189.1250000000001 524.9583333333333 190.4583333333334C534 191.75 542.5 194.2916666666666 550.4583333333334 198.0833333333334C558.375 201.875 565 207.0833333333334 570.2916666666666 213.6666666666666C575.5833333333333 220.2916666666668 578.25 228.7083333333334 578.25 238.9166666666668C578.25 249.8750000000001 574.75 258.75 567.75 265.5416666666668C560.75 272.375 551.5833333333333 278.0416666666667 540.2499999999999 282.5833333333334C531.625 286 521.2916666666666 288.8333333333334 510.9166666666666 291.625L250 291.625L250 333.2916666666667L389.2083333333333 333.2916666666667C384.7083333333333 336 379.375 337.8333333333334 375.2916666666667 340.9583333333334C363.9583333333333 349.6666666666667 354.7916666666667 360.5000000000001 347.7916666666667 373.5416666666668C340.7916666666667 386.5833333333333 337.2916666666667 402.3750000000001 337.2916666666667 420.9166666666667C337.2916666666667 441.6666666666667 341.75 459.75 350.625 475.0416666666667C359.5 490.3333333333334 371.125 503.0833333333334 385.5 513.2916666666667C399.8333333333333 523.5 416.0833333333333 531.0833333333334 434.25 536C452.3749999999999 540.875 470.5416666666666 543.3333333333334 488.6666666666666 543.3333333333334C509.8333333333333 543.3333333333334 530.125 541 549.625 536.25C569.0833333333333 531.5416666666667 586.375 523.875 601.5 513.2916666666667C616.5833333333333 502.7083333333334 628.5833333333333 489.2083333333334 637.5 472.7916666666667C646.375 456.3333333333334 650.7916666666666 436.375 650.7916666666666 412.9583333333334L564.625 412.9583333333334C563.875 425.0416666666667 561.3333333333333 435.0833333333333 556.9583333333334 443.0000000000001C552.625 450.9583333333333 546.875 457.1666666666667 539.7083333333333 461.7083333333334C532.4999999999999 466.2500000000001 524.2916666666666 469.4583333333334 515.0416666666666 471.3333333333334C505.7499999999999 473.25 495.6666666666667 474.2083333333333 484.7083333333333 474.2083333333333C477.5 474.2083333333333 470.3333333333333 473.4166666666666 463.1666666666666 471.9166666666667C455.9583333333333 470.4166666666667 449.4583333333333 467.75 443.5833333333333 464C437.7083333333333 460.2083333333334 432.9166666666667 455.5 429.125 449.7916666666668C425.3333333333333 444.125 423.4583333333333 436.9583333333333 423.4583333333333 428.25C423.4583333333333 420.3333333333334 424.9583333333333 413.9166666666667 428 409C431.0416666666667 404.0833333333333 436.9583333333333 399.5416666666667 445.875 395.375C454.7499999999999 391.2083333333334 467.0416666666666 387.0833333333334 482.7083333333333 382.9166666666667z" />
    <glyph glyph-name="editor_headline"
      unicode="&#xEA2E;"
      horiz-adv-x="1000" d=" M583.3333333333333 126.6666666666668L583.3333333333333 293.3333333333334L416.6666666666667 293.3333333333334L416.6666666666667 126.6666666666668L333.3333333333333 126.6666666666668L333.3333333333333 543.3333333333334L416.6666666666667 543.3333333333334L416.6666666666667 376.6666666666667L583.3333333333333 376.6666666666667L583.3333333333333 543.3333333333334L666.6666666666666 543.3333333333334L666.6666666666666 126.6666666666668L583.3333333333333 126.6666666666668" />
    <glyph glyph-name="editor_hr"
      unicode="&#xEA2F;"
      horiz-adv-x="1000" d=" M166.6666666666667 376.6666666666667H833.3333333333333V293.3333333333334H166.6666666666667V376.6666666666667z" />
    <glyph glyph-name="editor_italic"
      unicode="&#xEA30;"
      horiz-adv-x="1000" d=" M492.289225 125.5680416666667L575.125 402.8333333333334L463.4583333333333 402.8333333333334L375 125.5680416666667L492.289225 125.5680416666667zM533.2538125 460.7799645833334C546.1247208333333 460.7799645833334 591.5072041666666 456.8082683333333 602.6647791666667 466.7897687500001C613.82235 476.7712691666667 619.9652833333333 503.4757025 624.060575 518.57860125C628.1558625 533.7337591666667 617.9176416666667 554.32387 611.523975 564.35763C605.1303083333333 574.3391304166666 582.0629666666666 585 569.1920583333333 585C556.3211541666667 585 534.9671458333332 580.296675 523.9349416666666 569.8448420833333C512.9027333333333 559.3407500000001 505.5897166666666 537.3396416666667 502.0376791666666 523.1774079166667C498.4856458333333 509.0151741666667 499.57215 496.7342704166667 505.3389875 486.2301783333334C511.0640333333333 475.7260858333333 520.3829041666667 460.7799645833334 533.2538125 460.7799645833334z" />
    <glyph glyph-name="editor_link"
      unicode="&#xEA31;"
      horiz-adv-x="1000" d=" M751.5685583333333 542.0359687499999C693.5685583333333 600.03596875 598.7352249999999 599.2026354166667 539.7352249999999 540.2026354166667C497.9435583333333 498.41096875 486.610225 381.9526375000001 483.5268916666667 317.4109708333334L480.360225 270.8276375000001C473.5268916666666 197.3276375 459.5268916666666 151.4526375 449.6518916666667 140.4526375C421.1518916666666 111.9526375 375.61022625 111.1193041666667 348.0685595833333 138.6193041666667C320.6518929166667 166.0359708333334 321.4435595833333 211.5359708333334 349.8185595833333 240.0359708333333C350.6935595833334 240.7859708333334 357.23522625 243.3276375000001 416.0268929166667 253.4109708333333L417.610225 332.5776375000001C364.86022625 324.7443041666667 320.48522625 320.9526375000001 294.8185595833333 295.2859708333334C235.8185595833334 236.2859708333334 234.9435595833334 141.4526375000002 292.9435595833333 83.4526375C350.9435595833333 25.4943041666668 445.7768916666667 26.2859708333333 504.7768916666666 85.3276375C539.4435583333333 119.9943041666668 553.1935583333333 206.1609708333334 558.610225 271.4109708333333L619.8602249999999 282.9109708333333L619.8602249999999 282.9526375000001C671.8185583333334 290.8693041666667 724.4435583333333 304.9943041666667 749.6935583333333 330.2026375C808.6935583333334 389.2443041666667 809.5685583333333 484.0359687500001 751.5685583333333 542.0359687499999L751.5685583333333 542.0359687499999zM694.735225 385.5359708333334C684.9435583333333 376.7443041666667 656.4435583333333 368.4109708333334 619.8602249999999 362.0776375000001L564.110225 355.4109708333334C570.0268916666666 416.6609708333334 582.110225 470.7443020833334 594.9435583333333 485.16096875C623.485225 513.5776354166667 668.9435583333333 514.3276354166667 696.4018916666666 486.91096875C723.9018916666666 459.41096875 723.0685583333334 413.8693041666667 694.735225 385.5359708333334L694.735225 385.5359708333334z" />
    <glyph glyph-name="editor_markdown"
      unicode="&#xEA32;"
      horiz-adv-x="1000" d=" M187.5 543.3333333333334C145.8333333333333 543.3333333333334 125 522.5 125 480.8333333333334L125 189.1666666666668C125 147.5 145.8333333333333 126.6666666666668 187.5 126.6666666666668L812.5 126.6666666666668C854.1666666666666 126.6666666666668 875 147.5 875 189.1666666666668L875 480.8333333333334C875 522.5 854.1666666666666 543.3333333333334 812.5 543.3333333333334L187.5 543.3333333333334L187.5 543.3333333333334zM208.3333333333333 210L208.3333333333333 460L291.6666666666667 460L354.1666666666667 397.5L416.6666666666667 460L500 460L500 210L416.6666666666667 210L416.6666666666667 335L354.1666666666667 272.5L291.6666666666667 335L291.6666666666667 210L208.3333333333333 210L208.3333333333333 210zM791.6666666666666 293.3333333333334L708.3333333333333 210L666.6666666666666 210L583.3333333333333 293.3333333333334L583.3333333333333 335L625 335L625 460L750 460L750 335L791.6666666666666 335L791.6666666666666 293.3333333333334L791.6666666666666 293.3333333333334z" />
    <glyph glyph-name="editor_more"
      unicode="&#xEA33;"
      horiz-adv-x="1000" d=" M411.7647058333333 355.8333333333334C411.7647058333333 309.7916666666667 451.25 272.5 500 272.5C548.75 272.5 588.2352958333332 309.7916666666667 588.2352958333332 355.8333333333334C588.2352958333332 401.8750000000001 548.75 439.1666666666667 500 439.1666666666667C451.25 439.1666666666667 411.7647058333333 401.8750000000001 411.7647058333333 355.8333333333334z M764.7058833333333 439.1666666666667C715.9558833333334 439.1666666666667 676.4705875 401.8750000000001 676.4705875 355.8333333333334C676.4705875 309.7916666666667 715.9558833333334 272.5 764.7058833333333 272.5C813.4558833333333 272.5 852.941175 309.7916666666667 852.941175 355.8333333333334C852.941175 401.8750000000001 813.4558833333333 439.1666666666667 764.7058833333333 439.1666666666667 M235.2941175 439.1666666666667C186.5882354166666 439.1666666666667 147.0588235416667 401.8750000000001 147.0588235416667 355.8333333333334C147.0588235416667 309.7916666666667 186.5882354166666 272.5 235.2941175 272.5C284.0441175 272.5 323.5294116666667 309.7916666666667 323.5294116666667 355.8333333333334C323.5294116666667 401.8750000000001 284.0441175 439.1666666666667 235.2941175 439.1666666666667" />
    <glyph glyph-name="editor_ol"
      unicode="&#xEA34;"
      horiz-adv-x="1000" d=" M417.8975416666667 293.3333333333334L791.0308833333332 293.3333333333334L791.0308958333333 333.6063625L417.8975416666667 333.6063625L417.8975416666667 293.3333333333334z M418.9809166666667 85L787.9254541666666 85L787.9254541666666 126.6666666666668L418.9809166666667 126.6666666666668L418.9809166666667 85z M254.4549266666667 460L291.6666666666667 460L291.6666666666667 626.6666666666667L262.0545075 626.6666666666667C261.0062891666667 620.3333333333334 258.80503125 615 255.5031445833333 610.7142858333334C252.2012579166667 606.42857125 248.1132075 603 243.3438154166667 600.3809525C238.5220125 597.7619045833334 233.1236895833333 595.9047620833334 227.09643625 594.9047620833334C221.0691825 593.8571429166667 214.7798741666667 593.42857125 208.3333333333333 593.57142875L208.3333333333333 568.0952379166667L254.4549266666667 568.0952379166667L254.4549266666667 460L254.4549266666667 460z M286.2044766666667 340.8356666666667C282.7025308333333 337.7544333333334 278.8601183333334 334.9066291666667 274.6286008333334 332.3389375C270.3970833333334 329.7712416666667 266.4573945833334 327.2502333333334 262.71225875 324.729225C255.41653875 319.9206333333334 248.50992375 315.1587291666667 241.94377625 310.4901958333334C235.3776283333334 305.8216625 229.63832875 300.7329583333334 224.7745154166667 295.2240916666667C219.9107020833333 289.6685333333334 216.0682895833333 283.4127 213.2472779166667 276.4098958333334C210.3776283333333 269.4070958333334 208.9671225 261.1437916666668 208.9671225 251.6666666666668L333.9671225 251.6666666666668L333.9671225 280.144725L253.4710133333333 280.144725C257.7025308333334 285.7469666666667 262.5663441666666 290.648925 268.0624533333334 294.8506083333334C273.5585620833333 299.0522875000001 279.24922375 302.9738541666667 285.0857995833333 306.6620000000001C290.9223754166667 310.3034541666667 296.7103129166667 313.9915958333334 302.4982508333333 317.7264250000001C308.2375504166667 321.4612500000001 313.3931925 325.6162458333334 317.91653875 330.2380958333334C322.4885233333333 334.8132583333334 326.1363829166667 340.0420166666667 328.8601183333333 345.9710541666667C331.6324920833333 351.9000916666667 332.9943595833334 358.9962666666667 332.9943595833334 367.2128833333334C332.9943595833334 375.1493916666667 331.4379395833334 382.3389375000001 328.2764608333333 388.6881416666667C325.1149825 395.0840333333333 320.8348266666667 400.4528458333334 315.4846320833333 404.7945833333334C310.1344375 409.1830083333334 303.9573945833334 412.4976666666667 296.9048654166667 414.8319333333334C289.85233625 417.1662 282.4107020833333 418.3333333333334 274.6286008333334 418.3333333333334C264.4145933333333 418.3333333333334 255.3679004166667 416.6993458333334 247.53716125 413.338C239.65778375 409.9766583333334 233.1402741666667 405.308125 227.9359941666667 399.3324C222.73171375 393.3099916666667 218.8406633333333 386.3071875000001 216.2628420833334 378.3239958333334C213.68502125 370.2941166666667 212.51770625 361.6106458333334 212.8581729166667 352.2735750000001L245.9321029166667 352.2735750000001C245.9321029166667 356.6620000000001 246.36984625 361.0504208333334 247.2939708333334 365.4855291666667C248.1694570833334 369.9206333333334 249.6772391666667 373.9355750000001 251.76867875 377.6237166666667C253.8601183333333 381.2651708333334 256.68113 384.2530333333334 260.1830758333333 386.4939291666667C263.6363829166667 388.7348291666667 267.91653875 389.855275 272.92626625 389.855275C280.3679004166667 389.855275 286.4963054166667 387.6610625 291.3114804166667 383.2259583333333C296.0780175 378.7908500000001 298.4612858333333 372.5817 298.4612858333333 364.6451916666668C298.4612858333333 359.6965458333334 297.2939708333334 355.2614375000001 294.9593404166667 351.3398708333334C292.5760716666666 347.4649875000001 289.65778375 343.9635875000001 286.2044766666667 340.8356666666667L286.2044766666667 340.8356666666667z M303.5280591666667 132.2833583333334L303.5280591666667 132.7418625C311.412035 134.8968375 317.27694375 138.9316833333334 321.2189316666667 144.8922500000001C325.1609195833334 150.8528208333334 327.0838404166667 157.7304 327.0838404166667 165.5249875000001C327.0838404166667 172.7235208333334 325.4012845833333 179.0508958333334 322.0361729166667 184.5529583333334C318.67106125 190.0550208333334 314.29641625 194.731775 308.9603108333333 198.5373666666667C303.5761320833334 202.3888125000001 297.51893125 205.2315458333334 290.7887079166666 207.1572666666667C284.058485 209.0829875000001 277.3282616666666 210 270.5980383333333 210C261.9448941666667 210 254.1089916666667 208.6703333333334 247.0422570833334 206.0110041666667C239.9755229166667 203.351675 233.966395 199.5460791666667 228.9187275 194.640075C223.87106 189.7799166666667 219.9290720833333 183.9110500000001 217.09276375 177.1251708333334C214.30452875 170.3392958333334 212.7661916666667 162.7739583333335 212.4296808333333 154.5208625L244.87897125 154.5208625C244.7347520833333 162.7739583333335 246.849965 169.6515375 251.2726833333334 175.0619C255.6473283333333 180.4722625000001 262.1852595833334 183.1774416666667 270.8384033333334 183.1774416666667C277.0878966666667 183.1774416666667 282.6162941666667 181.3434208333334 287.42359625 177.6753791666666C292.23089875 174.0073375000001 294.63455 168.734525 294.63455 161.8569458333334C294.63455 157.2718916666667 293.4807975 153.6038500000001 291.1732920833333 150.8528208333334C288.8177141666667 148.1017875 285.8852595833333 145.9926625000001 282.2797829166667 144.5712958333334C278.67430625 143.1040791666668 274.78039125 142.2329208333334 270.5980383333333 141.9119666666667C266.4156854166667 141.5910125000002 262.5217704166667 141.5910125000002 258.8201479166667 141.9119666666667L258.8201479166667 118.9867041666668C263.0025008333334 118.9867041666668 267.3771458333333 118.8950041666667 271.9440829166667 118.66575C276.5110204166667 118.4364958333334 280.6933733333334 117.5653375000001 284.539215 116.1439708333334C288.3850570833333 114.6767541666668 291.55787625 112.338375 294.05767375 109.1288416666668C296.5093979166667 105.9193041666667 297.75929625 101.2425500000001 297.75929625 95.1444291666668C297.75929625 87.3498375 295.11528 81.2058708333334 289.8272475 76.7125166666667C284.539215 72.1733166666667 278.0493570833334 69.9266375 270.3576733333333 69.9266375C265.4061520833333 69.9266375 261.1276529166667 70.7519500000001 257.52217625 72.4484166666666C253.9166995833334 74.1448875000001 250.8880991666667 76.3915625000001 248.4844479166667 79.2342958333334C246.0807966666667 82.0311791666667 244.2540216666667 85.4241166666667 242.9560504166667 89.3214125C241.65807875 93.2187083333333 240.9369833333333 97.2994041666667 240.7927641666667 101.5635041666667L208.34347375 101.5635041666667C208.1992545833333 92.2558458333334 209.5933725 84.00275 212.5258266666667 76.8042166666667C215.5063541666667 69.6056875000002 219.73678 63.5534166666668 225.1690316666666 58.5557083333334C230.6012833333334 53.6038500000001 237.2353604166667 49.8441083333335 245.0231904166667 47.2306291666667C252.7629470833333 44.61715 261.3680179166667 43.3333333333334 270.8384033333334 43.3333333333334C279.0108175 43.3333333333334 286.8947933333334 44.4795958333334 294.3941845833333 46.7721208333334C301.9416491666667 49.06465 308.5757266666667 52.4117375000001 314.3444891666667 56.8592375000001C320.1132520833333 61.3067416666668 324.7282620833334 66.8088041666666 328.18952 73.3654291666668C331.6507775 79.9220541666667 333.3333333333333 87.4415416666667 333.3333333333333 95.8321875C333.3333333333333 105.0022916666667 330.6893170833333 112.8885833333335 325.4012845833333 119.4452083333334C320.1132520833333 126.0018333333334 312.8542254166666 130.3117833333333 303.5280591666667 132.2833583333334L303.5280591666667 132.2833583333334z M417.2566749999999 502.0049033333333L790.873225 502.0049033333333L790.873225 543.3333333333334L417.2566749999999 543.3333333333334L417.2566749999999 502.0049033333333z" />
    <glyph glyph-name="editor_plus"
      unicode="&#xEA35;"
      horiz-adv-x="1000" d=" M458.3333333333333 376.6666666666667V501.6666666666667H541.6666666666666V376.6666666666667H666.6666666666666V293.3333333333334H541.6666666666666V168.3333333333334H458.3333333333333V293.3333333333334H333.3333333333333V376.6666666666667H458.3333333333333L458.3333333333333 376.6666666666667z M500 751.6666666666666C270.8333333333333 751.6666666666666 83.3333333333333 564.1666666666667 83.3333333333333 335S270.8333333333333 -81.6666666666666 500 -81.6666666666666S916.6666666666666 105.8333333333334 916.6666666666666 335S729.1666666666666 751.6666666666666 500 751.6666666666666zM500 -6.6666666666662C312.5 -6.6666666666662 158.3333333333338 147.5 158.3333333333338 335S312.5 676.6666666666662 500 676.6666666666662S841.6666666666662 522.5 841.6666666666662 335S687.5 -6.6666666666662 500 -6.6666666666662z" />
    <glyph glyph-name="editor_quote"
      unicode="&#xEA36;"
      horiz-adv-x="1000" d=" M416.6666666666667 376.6666666666667L666.6666666666666 376.6666666666667L666.6666666666666 293.3333333333334L416.6666666666667 293.3333333333334L416.6666666666667 376.6666666666667z M583.5 501.25L776.0833333333334 362.4583333333334C797.3333333333333 347.1250000000001 797.3333333333333 322.2500000000001 776.0833333333334 306.9166666666668L583.5 168.0833333333334L583.5 501.25 M330 585L336.6666666666667 585C357.8333333333333 585 375 567.8333333333334 375 546.6666666666667L375 123.3333333333335C375 102.1666666666666 357.8333333333333 85 336.6666666666667 85L330 85C308.8333333333333 85 291.6666666666667 102.1666666666666 291.6666666666667 123.3333333333335L291.6666666666667 546.6666666666667C291.6666666666667 567.8333333333334 308.8333333333333 585 330 585" />
    <glyph glyph-name="editor_readmore"
      unicode="&#xEA37;"
      horiz-adv-x="1000" d=" M875 543.3541666666667L125 543.3541666666667C102 543.3541666666667 83.3333333333333 524.6875 83.3333333333333 501.6875L83.3333333333333 168.3541666666668C83.3333333333333 145.3125000000001 102 126.6458333333334 125 126.6458333333334L875 126.6458333333334C897.9999999999999 126.6458333333334 916.6666666666666 145.3125000000001 916.6666666666666 168.3541666666668L916.6666666666666 501.6875C916.6666666666666 524.6875 897.9999999999999 543.3541666666667 875 543.3541666666667zM291.6666666666667 376.6875000000001L375 376.6875000000001L375 293.3541666666668L291.6666666666667 293.3541666666668L291.6666666666667 376.6875000000001zM458.3333333333333 376.6875000000001L541.6666666666666 376.6875000000001L541.6666666666666 293.3541666666668L458.3333333333333 293.3541666666668L458.3333333333333 376.6875000000001zM625 376.6875000000001L708.3333333333333 376.6875000000001L708.3333333333333 293.3541666666668L625 293.3541666666668L625 376.6875000000001z" />
    <glyph glyph-name="editor_ul"
      unicode="&#xEA38;"
      horiz-adv-x="1000" d=" M416.6666666666667 543.3333333333334L791.6666666666666 543.3333333333334L791.6666666666666 501.6666666666667L416.6666666666667 501.6666666666667L416.6666666666667 543.3333333333334z M416.6666666666667 335L791.6666666666666 335L791.6666666666666 293.3333333333334L416.6666666666667 293.3333333333334L416.6666666666667 335z M416.6666666666667 126.6666666666668L791.6666666666666 126.6666666666668L791.6666666666666 85L416.6666666666667 85L416.6666666666667 126.6666666666668z M270.8333333333333 585C305.3333333333333 585 333.3333333333333 557 333.3333333333333 522.5C333.3333333333333 488.0000000000001 305.3333333333333 460 270.8333333333333 460C236.3333333333333 460 208.3333333333333 488.0000000000001 208.3333333333333 522.5C208.3333333333333 557 236.3333333333333 585 270.8333333333333 585 M270.8333333333333 376.6666666666667C305.3333333333333 376.6666666666667 333.3333333333333 348.6666666666667 333.3333333333333 314.1666666666668C333.3333333333333 279.6666666666668 305.3333333333333 251.6666666666668 270.8333333333333 251.6666666666668C236.3333333333333 251.6666666666668 208.3333333333333 279.6666666666668 208.3333333333333 314.1666666666668C208.3333333333333 348.6666666666667 236.3333333333333 376.6666666666667 270.8333333333333 376.6666666666667 M270.8333333333333 168.3333333333334C305.3333333333333 168.3333333333334 333.3333333333333 140.3333333333334 333.3333333333333 105.8333333333334C333.3333333333333 71.3333333333334 305.3333333333333 43.3333333333334 270.8333333333333 43.3333333333334C236.3333333333333 43.3333333333334 208.3333333333333 71.3333333333334 208.3333333333333 105.8333333333334C208.3333333333333 140.3333333333334 236.3333333333333 168.3333333333334 270.8333333333333 168.3333333333334" />
    <glyph glyph-name="elevator"
      unicode="&#xEA39;"
      horiz-adv-x="1000" d=" M125 460L125 251.6666666666668L333.3333333333333 251.6666666666668L333.3333333333333 460L458.3333333333333 460L229.1666666666667 710L0 460L125 460zM0 751.6666666666666L0 835L458.3333333333333 835L458.3333333333333 751.6666666666666L0 751.6666666666666z" />
    <glyph glyph-name="embed"
      unicode="&#xEA3A;"
      horiz-adv-x="1000" d=" M298.859375 563.2L124.25 334.3500000000001L298.859375 105.5500000000001C309.40625 91.65 325.203125 84.4 341.09375 84.4C352.671875 84.4 364.34375 88.25 374.140625 96.2000000000001C397.4375 114.9500000000002 401.5625 149.6500000000001 383.234375 173.6L260.609375 334.3500000000001L383.234375 495.1C401.5625 519.05 397.4375 553.75 374.140625 572.55C350.8906250000001 591.35 317.140625 587.1 298.859375 563.2z M700.15625 563.2C681.875 587.1 648.125 591.35 624.875 572.55C601.578125 553.75 597.453125 519.05 615.734375 495.1L738.40625 334.3500000000001L615.734375 173.6C597.453125 149.6500000000001 601.578125 114.9500000000002 624.875 96.2000000000001C634.671875 88.25 646.34375 84.4 657.921875 84.4C673.8125 84.4 689.5625 91.65 700.15625 105.5500000000001L874.765625 334.3500000000001L700.15625 563.2" />
    <glyph glyph-name="explore"
      unicode="&#xEA3B;"
      horiz-adv-x="916.6666666666666" d=" M458.3333333333333 -110.8333333333328C208.3333333333333 -110.8333333333328 4.1666666666676 93.3333333333329 4.1666666666676 343.3333333333329S208.3333333333333 797.4999999999986 458.3333333333333 797.4999999999986S912.499999999999 593.3333333333328 912.499999999999 343.3333333333329S708.3333333333333 -110.8333333333328 458.3333333333333 -110.8333333333328L458.3333333333333 -110.8333333333328zM504.1666666666676 710C483.3333333333343 714.1666666666677 429.1666666666672 714.1666666666677 420.8333333333343 710C250 693.3333333333343 108.3333333333343 555.8333333333338 87.5000000000009 384.9999999999996C83.3333333333333 364.1666666666663 83.3333333333333 309.9999999999991 87.5000000000009 301.6666666666662C104.1666666666667 126.6666666666668 245.8333333333348 -15.0000000000014 420.8333333333343 -31.6666666666671C429.1666666666672 -31.6666666666671 487.5000000000019 -31.6666666666671 504.1666666666676 -31.6666666666671C675.0000000000018 -10.8333333333337 812.5 126.6666666666668 829.166666666668 301.6666666666662C829.166666666668 309.9999999999991 829.166666666668 364.1666666666663 829.166666666668 384.9999999999996C804.1666666666671 555.8333333333338 670.8333333333343 689.1666666666667 504.1666666666676 710L504.1666666666676 710zM575.0000000000005 239.1666666666662C570.8333333333328 230.8333333333334 566.6666666666675 226.6666666666657 558.3333333333347 222.5000000000005L279.1666666666686 118.3333333333338C258.3333333333352 110.000000000001 233.3333333333343 130.8333333333343 241.6666666666695 155.8333333333329L345.8333333333362 434.9999999999991C350.0000000000038 443.333333333332 354.166666666669 447.4999999999996 362.5000000000019 451.6666666666648L641.6666666666681 555.8333333333314C662.5000000000014 564.1666666666642 687.5000000000023 543.333333333331 679.1666666666671 518.3333333333323L575.0000000000005 239.1666666666662L575.0000000000005 239.1666666666662zM495.8333333333347 376.6666666666667C475.0000000000014 397.5 441.6666666666676 397.5 425.0000000000019 376.6666666666667C404.1666666666686 355.8333333333334 404.1666666666686 322.4999999999996 425.0000000000019 305.8333333333339C445.8333333333352 285.0000000000005 479.166666666669 285.0000000000005 495.8333333333347 305.8333333333339C512.5000000000005 322.4999999999996 512.5000000000005 355.8333333333334 495.8333333333347 376.6666666666667L495.8333333333347 376.6666666666667z" />
    <glyph glyph-name="explore_inner"
      unicode="&#xEA3C;"
      horiz-adv-x="1000" d=" M730.5841541666667 505.4292616666667L627.3341541666666 224.3459291666667C624.5008208333334 216.5959291666667 618.3758208333334 210.4709291666667 610.6258208333334 207.6375958333333L329.5841545833333 104.3459291666667C307.0841545833333 96.0959291666667 285.1674879166667 117.9709291666668 293.4591545833333 140.4709291666668L396.5424879166667 421.6375950000001C399.4174879166667 429.3875950000001 405.50082125 435.5125950000001 413.2924879166667 438.3459283333334L694.4174875 541.5542616666667C716.9591541666666 549.8042616666667 738.8341541666666 527.9292616666667 730.5841541666667 505.4292616666667L730.5841541666667 505.4292616666667zM548.2924875 359.3042625C528.2508208333334 379.4292625000001 495.7508208333334 379.4292625000001 475.7508208333333 359.3042625C455.5841541666667 339.2209291666668 455.5841541666667 306.6375958333334 475.7508208333333 286.5542625000001C495.7508208333334 266.5125958333333 528.2508208333334 266.5125958333333 548.2924875 286.5542625000001C568.5008208333333 306.6375958333334 568.5008208333333 339.2209291666668 548.2924875 359.3042625L548.2924875 359.3042625z" />
    </font>
</defs>
</svg>
